Which codec in K-Lite enables yuv444p playback?

2 posters

Go down

Which codec in K-Lite enables yuv444p playback? Empty Which codec in K-Lite enables yuv444p playback?

Post by brock Wed Jun 19, 2024 6:43 pm

I have a file that plays in VLC, but not WMP. I require WMP playback. I know that K-Lite will enable playback, but I cannot install K-Lite because reasons. And so I'm trying to figure which specific codec is enabling playback of this file.

ffprobe output:
Code:
Input #0, mov,mp4,m4a,3gp,3g2,mj2, from 'Test_H264_yuv444p_AAC_5760x1080_1fps.mp4':
  Metadata:
    major_brand     : isom
    minor_version   : 512
    compatible_brands: isomiso2avc1mp41
    encoder         : Lavf57.71.100
  Duration: 00:02:27.00, start: 0.000000, bitrate: 1671 kb/s
  Stream #0:0[0x1](und): Video: h264 (High 4:4:4 Predictive) (avc1 / 0x31637661), yuv444p(progressive), 5760x1080, 1541 kb/s, 1 fps, 1 tbr, 16384 tbn (default)
    Metadata:
      handler_name    : VideoHandler
      vendor_id       : [0][0][0][0]
  Stream #0:1[0x2](und): Audio: aac (LC) (mp4a / 0x6134706D), 48000 Hz, stereo, fltp, 129 kb/s (default)
    Metadata:
      handler_name    : SoundHandler
      vendor_id       : [0][0][0][0]

Looks like h264 with yuv444p. I'm guessing it's the yuv444p bit that is tripping up WMP. Which codec in K-Lite enables yuv444p playback?

Thank-you!
-brock

brock

Posts : 1
Join date : 2024-06-19

Back to top Go down

Which codec in K-Lite enables yuv444p playback? Empty Re: Which codec in K-Lite enables yuv444p playback?

Post by Admin Wed Jun 19, 2024 11:22 pm

You need a H264 decoder that supports Hi444.
And you need to configure Windows to use that decoder instead of the Microsoft decoder.

I can not share all the secret details, because reasons.

Admin
Admin

Posts : 7445
Join date : 2011-06-17

https://codecs.forumotion.net

Back to top Go down

Back to top


 
Permissions in this forum:
You cannot reply to topics in this forum