RTX HDR problem after 18.3.0

2 posters

Go down

RTX HDR problem after 18.3.0 Empty RTX HDR problem after 18.3.0

Post by djsolidsnake86 Sun Jun 02, 2024 1:42 am

18.3.0 was last version where rtx hdr work good (colors are natural)
after this version the colors in some video files are oversaturated, and there is no way to fix this (only by disabling rtx hdr)

djsolidsnake86

Posts : 13
Join date : 2014-08-28

Back to top Go down

RTX HDR problem after 18.3.0 Empty Re: RTX HDR problem after 18.3.0

Post by Admin Sun Jun 02, 2024 12:19 pm

Press Ctrl+J and make a screenshot.

Admin
Admin

Posts : 7445
Join date : 2011-06-17

https://codecs.forumotion.net

Back to top Go down

RTX HDR problem after 18.3.0 Empty Re: RTX HDR problem after 18.3.0

Post by djsolidsnake86 Sun Jun 02, 2024 6:58 pm

Admin wrote:Press Ctrl+J and make a screenshot.
RTX HDR problem after 18.3.0 Hdr-problem

djsolidsnake86

Posts : 13
Join date : 2014-08-28

Back to top Go down

RTX HDR problem after 18.3.0 Empty Re: RTX HDR problem after 18.3.0

Post by djsolidsnake86 Sun Jun 02, 2024 7:02 pm

General
Unique ID                      : 218957066969626823468132216382211449443 (0xA4B998E0DDFE38093B4403AA70636263)
Complete name                  
Format                         : Matroska
Format version                 : Version 2
File size                      : 12.5 GiB
Duration                       : 2 h 36 min
Overall bit rate               : 11.4 Mb/s
Frame rate                     : 23.976 FPS
Encoded date                   : 2019-11-26 10:41:15 UTC
Writing application            : mkvmerge v40.0.0 ('Old Town Road + Pony') 64-bit
Writing library                : libebml v1.3.9 + libmatroska v1.5.2

Video
ID                             : 1
Format                         : AVC
Format/Info                    : Advanced Video Codec
Format profile                 : High@L4.1
Format settings                : CABAC / 4 Ref Frames
Format settings, CABAC         : Yes
Format settings, Reference fra : 4 frames
Codec ID                       : V_MPEG4/ISO/AVC
Duration                       : 2 h 36 min
Bit rate                       : 9 269 kb/s
Width                          : 1 920 pixels
Height                         : 802 pixels
Display aspect ratio           : 2.39:1
Frame rate mode                : Constant
Frame rate                     : 23.976 (24000/1001) FPS
Color space                    : YUV
Chroma subsampling             : 4:2:0
Bit depth                      : 8 bits
Scan type                      : Progressive
Bits/(Pixel*Frame)             : 0.251
Stream size                    : 10.1 GiB (81%)
Title                          : Alì
Writing library                : x264 core 158 r2988 7817004
Encoding settings              : cabac=1 / ref=4 / deblock=1:-3:-3 / analyse=0x3:0x133 / me=umh / subme=10 / psy=1 / psy_rd=1.00:0.00 / mixed_ref=1 / me_range=32 / chroma_me=1 / trellis=2 / 8x8dct=1 / cqm=0 / deadzone=21,11 / fast_pskip=0 / chroma_qp_offset=-2 / threads=12 / lookahead_threads=2 / sliced_threads=0 / nr=0 / decimate=0 / interlaced=0 / bluray_compat=0 / constrained_intra=0 / bframes=8 / b_pyramid=2 / b_adapt=2 / b_bias=0 / direct=3 / weightb=1 / open_gop=0 / weightp=2 / keyint=250 / keyint_min=23 / scenecut=40 / intra_refresh=0 / rc_lookahead=60 / rc=crf / mbtree=0 / crf=20.2 / qcomp=0.60 / qpmin=0 / qpmax=69 / qpstep=4 / vbv_maxrate=50000 / vbv_bufsize=50000 / crf_max=0.0 / nal_hrd=none / filler=0 / ip_ratio=1.40 / pb_ratio=1.30 / aq=3:0.85
Language                       : Italian
Default                        : Yes
Forced                         : No

Audio #1
ID                             : 2
Format                         : DTS
Format/Info                    : Digital Theater Systems
Codec ID                       : A_DTS
Duration                       : 2 h 36 min
Bit rate mode                  : Constant
Bit rate                       : 1 509 kb/s
Channel(s)                     : 6 channels
Channel layout                 : C L R Ls Rs LFE
Sampling rate                  : 48.0 kHz
Frame rate                     : 93.750 FPS (512 SPF)
Bit depth                      : 24 bits
Compression mode               : Lossy
Stream size                    : 1.65 GiB (13%)
Title                          : DTS 5.1
Language                       : Italian
Default                        : Yes
Forced                         : No

Audio #2
ID                             : 3
Format                         : AC-3
Format/Info                    : Audio Coding 3
Commercial name                : Dolby Digital
Codec ID                       : A_AC3
Duration                       : 2 h 36 min
Bit rate mode                  : Constant
Bit rate                       : 640 kb/s
Channel(s)                     : 6 channels
Channel layout                 : L R C LFE Ls Rs
Sampling rate                  : 48.0 kHz
Frame rate                     : 31.250 FPS (1536 SPF)
Compression mode               : Lossy
Stream size                    : 717 MiB (6%)
Title                          : AC3 5.1
Language                       : English
Service kind                   : Complete Main
Default                        : No
Forced                         : No
AC3_metadata cmixlev           : -3.0 dB
surmixlev                     : -3 dB

Text #1
ID                             : 4
Format                         : UTF-8
Codec ID                       : S_TEXT/UTF8
Codec ID/Info                  : UTF-8 Plain Text
Duration                       : 2 h 30 min
Bit rate                       : 0 b/s
Frame rate                     : 0.001 FPS
Count of elements              : 12
Stream size                    : 521 Bytes (0%)
Title                          : Italiano forced
Language                       : Italian
Default                        : Yes
Forced                         : Yes

Text #2
ID                             : 5
Format                         : VobSub
Codec ID                       : S_VOBSUB
Codec ID/Info                  : Picture based subtitle format used on DVDs
Duration                       : 2 h 30 min
Bit rate                       : 5 708 b/s
Frame rate                     : 0.134 FPS
Count of elements              : 1209
Stream size                    : 6.16 MiB (0%)
Title                          : Italiano
Language                       : Italian
Default                        : No
Forced                         : No

Text #3
ID                             : 6
Format                         : PGS
Codec ID                       : S_HDMV/PGS
Codec ID/Info                  : Picture based subtitle format used on BDs/HD-DVDs
Duration                       : 2 h 30 min
Bit rate                       : 24.0 kb/s
Frame rate                     : 0.267 FPS
Count of elements              : 2420
Stream size                    : 25.9 MiB (0%)
Title                          : Italiano
Language                       : Italian
Default                        : No
Forced                         : No

Menu
00:00:00.000                   : it:Capitolo 1
00:13:31.769                   : it:Capitolo 2
00:26:22.790                   : it:Capitolo 3
00:39:46.342                   : it:Capitolo 4
00:52:03.245                   : it:Capitolo 5
01:05:19.124                   : it:Capitolo 6
01:19:42.027                   : it:Capitolo 7
01:31:27.399                   : it:Capitolo 8
01:45:19.438                   : it:Capitolo 9
01:58:14.004                   : it:Capitolo 10
02:11:25.419                   : it:Capitolo 11
02:24:40.505                   : it:Capitolo 12

djsolidsnake86

Posts : 13
Join date : 2014-08-28

Back to top Go down

RTX HDR problem after 18.3.0 Empty Re: RTX HDR problem after 18.3.0

Post by Admin Sun Jun 02, 2024 10:24 pm

Does the NVIDIA control panel show RTX HDR as active?

You can report problem here:
https://github.com/Aleksoid1978/VideoRenderer/issues

Admin
Admin

Posts : 7445
Join date : 2011-06-17

https://codecs.forumotion.net

Back to top Go down

RTX HDR problem after 18.3.0 Empty Re: RTX HDR problem after 18.3.0

Post by djsolidsnake86 Mon Jun 03, 2024 11:47 am

Admin wrote:Does the NVIDIA control panel show RTX HDR as active?

You can report problem here:
https://github.com/Aleksoid1978/VideoRenderer/issues
yes

djsolidsnake86

Posts : 13
Join date : 2014-08-28

Back to top Go down

RTX HDR problem after 18.3.0 Empty Re: RTX HDR problem after 18.3.0

Post by djsolidsnake86 Mon Jun 03, 2024 1:02 pm

Admin wrote:Does the NVIDIA control panel show RTX HDR as active?

You can report problem here:
https://github.com/Aleksoid1978/VideoRenderer/issues
I opened the discussion but it's telling me not to use k-lite confused
https://github.com/Aleksoid1978/VideoRenderer/issues/161

djsolidsnake86

Posts : 13
Join date : 2014-08-28

Back to top Go down

RTX HDR problem after 18.3.0 Empty Re: RTX HDR problem after 18.3.0

Post by djsolidsnake86 Mon Jun 03, 2024 1:39 pm

i uploaded here a video sample of one file that give me this problem, if you want take a look, thanks
https://file.io/OkM1FMf1g1Fn

djsolidsnake86

Posts : 13
Join date : 2014-08-28

Back to top Go down

RTX HDR problem after 18.3.0 Empty Re: RTX HDR problem after 18.3.0

Post by Admin Mon Jun 03, 2024 1:56 pm

I don't have RTX compatible GPU.

Did you perhaps also update the NVIDIA driver? If so, it could be a driver bug. Make sure that you have rebooted at least once, in case you normally use sleep mode.

Does 18.3.0 still work ok if you install it right now?

Here is a version of the renderer that is inbetween the ones from 18.3.0 and 18.3.5:
https://github.com/clsid2/MPCVideoRenderer/releases

Admin
Admin

Posts : 7445
Join date : 2011-06-17

https://codecs.forumotion.net

Back to top Go down

RTX HDR problem after 18.3.0 Empty Re: RTX HDR problem after 18.3.0

Post by djsolidsnake86 Mon Jun 03, 2024 2:01 pm

Admin wrote:I don't have RTX compatible GPU.

Did you perhaps also update the NVIDIA driver? If so, it could be a driver bug. Make sure that you have rebooted at least once, in case you normally use sleep mode.

Does 18.3.0 still work ok if you install it right now?

Here is a version of the renderer that is inbetween the ones from 18.3.0 and 18.3.5:
https://github.com/clsid2/MPCVideoRenderer/releases
yes last nvidia drivers version,yes 18.3.0 give normal colours

djsolidsnake86

Posts : 13
Join date : 2014-08-28

Back to top Go down

RTX HDR problem after 18.3.0 Empty Re: RTX HDR problem after 18.3.0

Post by djsolidsnake86 Mon Jun 03, 2024 2:12 pm

Admin wrote:I don't have RTX compatible GPU.

Did you perhaps also update the NVIDIA driver? If so, it could be a driver bug. Make sure that you have rebooted at least once, in case you normally use sleep mode.

Does 18.3.0 still work ok if you install it right now?

Here is a version of the renderer that is inbetween the ones from 18.3.0 and 18.3.5:
https://github.com/clsid2/MPCVideoRenderer/releases
installing this version of mpc video renderer on 18.3.5 give right colors
so the problem is the video renderer

djsolidsnake86

Posts : 13
Join date : 2014-08-28

Back to top Go down

RTX HDR problem after 18.3.0 Empty Re: RTX HDR problem after 18.3.0

Post by Admin Mon Jun 03, 2024 4:06 pm

Then bug started after that renderer version.

Admin
Admin

Posts : 7445
Join date : 2011-06-17

https://codecs.forumotion.net

Back to top Go down

RTX HDR problem after 18.3.0 Empty Re: RTX HDR problem after 18.3.0

Post by Sponsored content


Sponsored content


Back to top Go down

Back to top


 
Permissions in this forum:
You cannot reply to topics in this forum