Subtitle disapears when movie is paused for couple hours

2 posters

Go down

Subtitle disapears when movie is paused for couple hours Empty Subtitle disapears when movie is paused for couple hours

Post by berkkocaturk Sat Nov 20, 2021 12:33 pm

Hello
My problem is when i am watcing movies i can not watch them as whole i pause it for couple hours and when i continue the subtitle (srt that i dragged onte mpc) disapears the subtitle selection greys out when i drag it again it works normal this happened twice today i started watching yesterday and in the morning i had to drag the subtitle again and i paused and in the noon i had to drag the subtitle again

My system is as follows
windows 10 21H2 19044.1348 Windows Feature Experience Pack 120.2212.3920.0
I am using lav decoders and madvr
klcp_update_1655_20211115 included mpc

I havent tried anything to solve this issue.

I am watching a movie this is the mediainfo if you need it
mediainfo in mpc:
General
Complete name                  : C:\Users\B3RK\Desktop\Shang-Chi.And.The.Legend.Of.The.Ten.Rings.2021.1080p.BluRay.x265-RARBG\Shang-Chi.And.The.Legend.Of.The.Ten.Rings.2021.1080p.BluRay.x265-RARBG.mp4
Format                         : MPEG-4
Format profile                 : Base Media
Codec ID                       : isom (isom/iso2/mp41)
File size                      : 2.06 GiB
Duration                       : 2 h 12 min
Overall bit rate               : 2 232 kb/s
Movie name                     : Shang-Chi.And.The.Legend.Of.The.Ten.Rings.2021.1080p.BluRay.x265-RARBG
Encoded date                   : UTC 2021-11-10 01:26:42
Tagged date                    : UTC 2021-11-10 01:26:42
Writing application            : Lavf58.20.100
Comment                        : Shang-Chi.And.The.Legend.Of.The.Ten.Rings.2021.1080p.BluRay.x265-RARBG

Video
ID                             : 1
Format                         : HEVC
Format/Info                    : High Efficiency Video Coding
Format profile                 : Main 10@L4@Main
Codec ID                       : hev1
Codec ID/Info                  : High Efficiency Video Coding
Duration                       : 2 h 12 min
Bit rate                       : 2 001 kb/s
Width                          : 1 920 pixels
Height                         : 804 pixels
Display aspect ratio           : 2.40:1
Frame rate mode                : Constant
Frame rate                     : 23.976 (24000/1001) FPS
Color space                    : YUV
Chroma subsampling             : 4:2:0
Bit depth                      : 10 bits
Bits/(Pixel*Frame)             : 0.054
Stream size                    : 1.85 GiB (90%)
Writing library                : x265 3.3+4-rarbg-30eb4de83092:[Linux][GCC 8.3.1][64 bit] 10bit
Encoding settings              : cpuid=1111039 / frame-threads=4 / wpp / no-pmode / no-pme / no-psnr / no-ssim / log-level=2 / input-csp=1 / input-res=1920x804 / interlace=0 / total-frames=0 / level-idc=0 / high-tier=1 / uhd-bd=0 / ref=4 / no-allow-non-conformance / no-repeat-headers / annexb / no-aud / no-hrd / info / hash=0 / no-temporal-layers / open-gop / min-keyint=23 / keyint=250 / gop-lookahead=0 / bframes=4 / b-adapt=2 / b-pyramid / bframe-bias=0 / rc-lookahead=25 / lookahead-slices=4 / scenecut=40 / hist-scenecut=0 / radl=0 / no-splice / no-intra-refresh / ctu=64 / min-cu-size=8 / rect / no-amp / max-tu-size=32 / tu-inter-depth=1 / tu-intra-depth=1 / limit-tu=0 / rdoq-level=2 / dynamic-rd=0.00 / no-ssim-rd / signhide / no-tskip / nr-intra=0 / nr-inter=0 / no-constrained-intra / strong-intra-smoothing / max-merge=3 / limit-refs=3 / limit-modes / me=3 / subme=3 / merange=57 / temporal-mvp / no-frame-dup / no-hme / weightp / no-weightb / no-analyze-src-pics / deblock=0:0 / no-sao / no-sao-non-deblock / rd=4 / selective-sao=0 / no-early-skip / rskip / no-fast-intra / no-tskip-fast / no-cu-lossless / no-b-intra / no-splitrd-skip / rdpenalty=0 / psy-rd=2.00 / psy-rdoq=1.00 / no-rd-refine / no-lossless / cbqpoffs=0 / crqpoffs=0 / rc=abr / bitrate=2000 / qcomp=0.60 / qpstep=4 / stats-write=0 / stats-read=2 / cplxblur=20.0 / qblur=0.5 / ipratio=1.40 / pbratio=1.30 / aq-mode=3 / aq-strength=1.00 / cutree / zone-count=0 / no-strict-cbr / qg-size=32 / no-rc-grain / qpmax=69 / qpmin=0 / no-const-vbv / sar=1 / overscan=0 / videoformat=5 / range=0 / colorprim=2 / transfer=2 / colormatrix=2 / chromaloc=0 / display-window=0 / cll=0,0 / min-luma=0 / max-luma=1023 / log2-max-poc-lsb=8 / vui-timing-info / vui-hrd-info / slices=1 / no-opt-qp-pps / no-opt-ref-list-length-pps / no-multi-pass-opt-rps / scenecut-bias=0.05 / hist-threshold=0.01 / no-opt-cu-delta-qp / no-aq-motion / no-hdr10 / no-hdr10-opt / no-dhdr10-opt / no-idr-recovery-sei / analysis-reuse-level=0 / analysis-save-reuse-level=0 / analysis-load-reuse-level=0 / scale-factor=0 / refine-intra=0 / refine-inter=0 / refine-mv=1 / refine-ctu-distortion=0 / no-limit-sao / ctu-info=0 / no-lowpass-dct / refine-analysis-type=0 / copy-pic=1 / max-ausize-factor=1.0 / no-dynamic-refine / no-single-sei / no-hevc-aq / no-svt / no-field / qp-adaptation-range=1.00 / no-scenecut-aware-qpconformance-window-offsets / right=0 / bottom=0
Encoded date                   : UTC 2021-11-10 01:26:42
Tagged date                    : UTC 2021-11-10 01:26:42
Codec configuration box        : hvcC

Audio
ID                             : 2
Format                         : AAC LC
Format/Info                    : Advanced Audio Codec Low Complexity
Codec ID                       : mp4a-40-2
Duration                       : 2 h 12 min
Bit rate mode                  : Constant
Bit rate                       : 224 kb/s
Channel(s)                     : 6 channels
Channel layout                 : C L R Ls Rs LFE
Sampling rate                  : 48.0 kHz
Frame rate                     : 46.875 FPS (1024 SPF)
Compression mode               : Lossy
Stream size                    : 212 MiB (10%)
Language                       : English
Default                        : Yes
Alternate group                : 1
Encoded date                   : UTC 2021-11-10 01:26:42
Tagged date                    : UTC 2021-11-10 01:26:42


subtitle info:
General
Complete name               : C:\Users\B3RK\Desktop\Shang-Chi.And.The.Legend.Of.The.Ten.Rings.2021.1080p.BluRay.x265-RARBG\10_English.srt
Format                      : SubRip
File size                   : 83.6 KiB

Text
Format                      : SubRip
Compression mode            : Lossless


berkkocaturk

Posts : 3
Join date : 2021-11-20

Back to top Go down

Subtitle disapears when movie is paused for couple hours Empty Re: Subtitle disapears when movie is paused for couple hours

Post by Admin Sat Nov 20, 2021 4:51 pm

The video file is reloaded when the player has been paused for more than 30 minutes. At this moment the subtitle is not remembered if it was loaded manually. That will be fixed soon in upcoming version.

So for now you need to add he subtitle again after a long pause.

Tip: if you give the subtitle file the same name as the movie file, then it will be loaded automatically.

Admin
Admin

Posts : 6164
Join date : 2011-06-17

https://codecs.forumotion.net

Back to top Go down

Subtitle disapears when movie is paused for couple hours Empty Re: Subtitle disapears when movie is paused for couple hours

Post by berkkocaturk Sat Nov 20, 2021 5:27 pm

Oh thanks I did not now this why does the player do this? Is there a reason behind it just curious I have enough system resources. Could this be a toggle so it doesnt happen to me Smile

I realized it flashed when i unpaused it is loading the same file i suppose smething happened like clearing cache but didn't think it was reloading the video.

Thanks for excellent develeopment you guys.

berkkocaturk

Posts : 3
Join date : 2021-11-20

Back to top Go down

Subtitle disapears when movie is paused for couple hours Empty Re: Subtitle disapears when movie is paused for couple hours

Post by Admin Sun Nov 21, 2021 3:37 pm

There will be an advanced option for it in next version.

The reason it is done is because on some systems there are playback issues after a long pause due to faulty drivers.

Admin
Admin

Posts : 6164
Join date : 2011-06-17

https://codecs.forumotion.net

Back to top Go down

Subtitle disapears when movie is paused for couple hours Empty Re: Subtitle disapears when movie is paused for couple hours

Post by berkkocaturk Yesterday at 11:59 am

Thank you. It will be in advanced settings i presume. I will check

berkkocaturk

Posts : 3
Join date : 2021-11-20

Back to top Go down

Subtitle disapears when movie is paused for couple hours Empty Re: Subtitle disapears when movie is paused for couple hours

Post by Admin Yesterday at 9:40 pm

Option is already available in 16.5.8

Admin
Admin

Posts : 6164
Join date : 2011-06-17

https://codecs.forumotion.net

Back to top Go down

Subtitle disapears when movie is paused for couple hours Empty Re: Subtitle disapears when movie is paused for couple hours

Post by Sponsored content


Sponsored content


Back to top Go down

Back to top


 
Permissions in this forum:
You cannot reply to topics in this forum