Codec Guide
Would you like to react to this message? Create an account in a few clicks or log in to continue.

The latest version of the codec does not play the video.

Go down

The latest version of the codec does not play the video. Empty The latest version of the codec does not play the video.

Post by Peter15 Wed Mar 10, 2021 1:10 am

The previous version (for 2018) plays normally (x64, Windows Server 2008 R2). Does not play on Windows 7 (black screen). In other players, it plays normally.
Code:
General
Complete name               : D:\t2\iw5mp 2018-05-08 09-24-25-95.avi
Format                      : AVI
Format/Info                 : Audio Video Interleave
File size                   : 1.20 GiB
Duration                    : 46 s 500 ms
Overall bit rate            : 222 Mb/s

Video
ID                          : 0
Format                      : Fraps
Codec ID                    : FPS1
Duration                    : 46 s 500 ms
Bit rate                    : 221 Mb/s
Width                       : 1 280 pixels
Height                      : 1 024 pixels
Display aspect ratio        : 5:4
Frame rate                  : 40.000 FPS
Color space                 : YUV
Bit depth                   : 8 bits
Bits/(Pixel*Frame)          : 4.209
Stream size                 : 1.19 GiB (99%)

Audio
ID                          : 1
Format                      : PCM
Format settings             : Little / Signed
Codec ID                    : 1
Duration                    : 46 s 500 ms
Bit rate mode               : Constant
Bit rate                    : 1 536 kb/s
Channel(s)                  : 2 channels
Sampling rate               : 48.0 kHz
Bit depth                   : 16 bits
Stream size                 : 8.51 MiB (1%)
Alignment                   : Aligned on interleaves
Interleave, duration        : 989  ms (39.57 video frames)


Peter15

Posts : 7
Join date : 2017-05-21

Back to top Go down

The latest version of the codec does not play the video. Empty Re: The latest version of the codec does not play the video.

Post by Admin Wed Mar 10, 2021 11:25 pm

LAV Video Decoder settings > Formats > Disable Fraps
Then it will use the Fraps codec that you have installed. Assuming you have it installed.

Admin
Admin

Posts : 5798
Join date : 2011-06-17

https://codecs.forumotion.net

Back to top Go down

Back to top


 
Permissions in this forum:
You cannot reply to topics in this forum