Codec Guide
Would you like to react to this message? Create an account in a few clicks or log in to continue.

How to play Dolby Vision content ?

Go down

How to play Dolby Vision content ? Empty How to play Dolby Vision content ?

Post by mooms on Sat Nov 28, 2020 12:05 pm

Hi Admin,

I've downloaded a MKV file with DV, but my TV (LG OLED 55B9) only recognize the stream as HDR, not DV.

Is MPC-HC & MadVR able to play DV content ?

Media Info:

Code:
Format                      : Matroska
Format version              : Version 4
File size                  : 77.1 GiB
Duration                    : 2 h 27 min
Overall bit rate mode      : Variable
Overall bit rate            : 74.8 Mb/s
Movie name                  : Mission: Impossible Fallout
Encoded date                : UTC 2020-11-20 15:14:45
Writing application        : mkvmerge v51.0.0 ('I Wish') 64-bit
Writing library            : libebml v1.4.0 + libmatroska v1.6.2

Video
ID                          : 1
ID in the original source m : 4113 (0x1011)
Format                      : HEVC
Format/Info                : High Efficiency Video Coding
Format profile              : Main 10@L5.1@High
HDR format                  : Dolby Vision, Version 1.0, dvhe.07.06, BL+EL+RPU, Blu-ray compatible / SMPTE ST 2086, HDR10 compatible
Codec ID                    : V_MPEGH/ISO/HEVC
Duration                    : 2 h 27 min
Bit rate                    : 68.5 Mb/s
Width                      : 3 840 pixels
Height                      : 2 160 pixels
Display aspect ratio        : 16:9
Frame rate mode            : Constant
Frame rate                  : 23.976 (24000/1001) FPS
Color space                : YUV
Chroma subsampling          : 4:2:0 (Type 2)
Bit depth                  : 10 bits
Bits/(Pixel*Frame)          : 0.344
Stream size                : 70.5 GiB (91%)
Language                    : English
Default                    : Yes
Forced                      : No
Color range                : Limited
Color primaries            : BT.2020
Transfer characteristics    : PQ
Matrix coefficients        : BT.2020 non-constant
Mastering display color pri : Display P3
Mastering display luminance : min: 0.0001 cd/m2, max: 1000 cd/m2
Original source medium      : Blu-ray

Audio #1
ID                          : 2
Format                      : AC-3
Format/Info                : Audio Coding 3
Commercial name            : Dolby Digital
Codec ID                    : A_AC3
Duration                    : 2 h 27 min
Bit rate mode              : Constant
Bit rate                    : 640 kb/s
Channel(s)                  : 6 channels
Channel layout              : L R C LFE Ls Rs
Sampling rate              : 48.0 kHz
Frame rate                  : 31.250 FPS (1536 SPF)
Compression mode            : Lossy
Stream size                : 675 MiB (1%)
Title                      : VFF
Language                    : French
Service kind                : Complete Main
Default                    : Yes
Forced                      : No

Audio #2
ID                          : 3
Format                      : MLP FBA 16-ch
Format/Info                : Meridian Lossless Packing FBA with 16-channel presentation
Commercial name            : Dolby TrueHD with Dolby Atmos
Codec ID                    : A_TRUEHD
Duration                    : 2 h 27 min
Bit rate mode              : Variable
Bit rate                    : 5 026 kb/s
Maximum bit rate            : 8 175 kb/s
Channel(s)                  : 8 channels
Channel layout              : L R C LFE Ls Rs Lb Rb
Sampling rate              : 48.0 kHz
Frame rate                  : 1 200.000 FPS (40 SPF)
Compression mode            : Lossless
Stream size                : 5.17 GiB (7%)
Language                    : English
Default                    : No
Forced                      : No
Number of dynamic objects  : 11
Bed channel count          : 1 channel
Bed channel configuration  : LFE

Audio #3
ID                          : 4
Format                      : AC-3
Format/Info                : Audio Coding 3
Commercial name            : Dolby Digital
Codec ID                    : A_AC3
Duration                    : 2 h 27 min
Bit rate mode              : Constant
Bit rate                    : 640 kb/s
Channel(s)                  : 6 channels
Channel layout              : L R C LFE Ls Rs
Sampling rate              : 48.0 kHz
Frame rate                  : 31.250 FPS (1536 SPF)
Compression mode            : Lossy
Stream size                : 675 MiB (1%)
Language                    : English
Service kind                : Complete Main
Default                    : No
Forced                      : No

Text #1
ID                          : 5
Format                      : UTF-8
Codec ID                    : S_TEXT/UTF8
Codec ID/Info              : UTF-8 Plain Text
Duration                    : 2 h 3 min
Bit rate                    : 0 b/s
Count of elements          : 15
Stream size                : 308 Bytes (0%)
Title                      : Forces
Language                    : French
Default                    : Yes
Forced                      : No

Text #2
ID                          : 6
Format                      : PGS
Muxing mode                : zlib
Codec ID                    : S_HDMV/PGS
Codec ID/Info              : Picture based subtitle format used on BDs/HD-DVDs
Duration                    : 2 h 26 min
Bit rate                    : 21.9 kb/s
Count of elements          : 2895
Stream size                : 23.0 MiB (0%)
Title                      : Complets
Language                    : French
Default                    : No
Forced                      : No

Text #3
ID                          : 7
Format                      : PGS
Muxing mode                : zlib
Codec ID                    : S_HDMV/PGS
Codec ID/Info              : Picture based subtitle format used on BDs/HD-DVDs
Duration                    : 2 h 19 min
Bit rate                    : 28.4 kb/s
Count of elements          : 3111
Stream size                : 28.3 MiB (0%)
Language                    : English
Default                    : No
Forced                      : No

Menu
00:00:00.000                : en:Chapter 01
00:10:37.011                : en:Chapter 02
00:17:11.155                : en:Chapter 03
00:26:57.240                : en:Chapter 04
00:35:56.654                : en:Chapter 05
00:49:18.413                : en:Chapter 06
01:00:00.805                : en:Chapter 07
01:10:23.469                : en:Chapter 08
01:17:07.039                : en:Chapter 09
01:28:28.469                : en:Chapter 10
01:39:09.443                : en:Chapter 11
01:46:26.546                : en:Chapter 12
01:55:45.563                : en:Chapter 13
02:03:10.591                : en:Chapter 14
02:14:00.907                : en:Chapter 15
02:19:48.046                : en:Chapter 16

mooms

Posts : 23
Join date : 2011-09-29

Back to top Go down

How to play Dolby Vision content ? Empty Re: How to play Dolby Vision content ?

Post by Admin on Sat Nov 28, 2020 1:54 pm

No, Dolby Vision is not yet supported at this moment.

I don't know if or when it might get supported.

Admin
Admin

Posts : 5638
Join date : 2011-06-17

https://codecs.forumotion.net

Back to top Go down

How to play Dolby Vision content ? Empty Re: How to play Dolby Vision content ?

Post by mooms on Sat Nov 28, 2020 9:42 pm

I see. Thanks. Is it even possible to play DV content on Windows ?

mooms

Posts : 23
Join date : 2011-09-29

Back to top Go down

How to play Dolby Vision content ? Empty Re: How to play Dolby Vision content ?

Post by Admin on Sun Nov 29, 2020 8:35 pm

I don't know any player that supports it.

Admin
Admin

Posts : 5638
Join date : 2011-06-17

https://codecs.forumotion.net

Back to top Go down

How to play Dolby Vision content ? Empty Re: How to play Dolby Vision content ?

Post by Sponsored content


Sponsored content


Back to top Go down

Back to top


 
Permissions in this forum:
You cannot reply to topics in this forum