Codec Guide
Would you like to react to this message? Create an account in a few clicks or log in to continue.

Can't play some files after clean install windows 10

Go down

Can't play some files after clean install windows 10 Empty Can't play some files after clean install windows 10

Post by omard4dr on Mon Apr 13, 2020 12:43 pm

Hi, I can't play live TV on DVBViewer after reinstall Windows 10 on my PC. Also I can't play previosly recoded Tv TS files on MPC. K-Lite default settings, audio Ok, No video.

Mediainfo of some TS files I can't play

Code:
General
ID                          : 5200 (0x1450)
Complete name               : D:\TV\REC\2017-02-26_22-56-45_A8 (spa)_.ts
Format                      : MPEG-TS
File size                   : 1.63 GiB
Duration                    : 45 min 37 s
Overall bit rate mode       : Variable
Overall bit rate            : 5 099 kb/s

Video
ID                          : 1020 (0x3FC)
Menu ID                     : 10225 (0x27F1)
Format                      : MPEG Video
Format version              : Version 2
Format profile              : Main@Main
Format settings             : CustomMatrix / BVOP
Format settings, BVOP       : Yes
Format settings, Matrix     : Custom
Format settings, GOP        : Variable
Format settings, picture st : Frame
Codec ID                    : 2
Duration                    : 45 min 37 s
Bit rate mode               : Variable
Bit rate                    : 4 395 kb/s
Maximum bit rate            : 15.0 Mb/s
Width                       : 720 pixels
Height                      : 576 pixels
Display aspect ratio        : 16:9
Frame rate                  : 25.000 FPS
Standard                    : PAL
Color space                 : YUV
Chroma subsampling          : 4:2:0
Bit depth                   : 8 bits
Scan type                   : Interlaced
Scan order                  : Top Field First
Compression mode            : Lossy
Bits/(Pixel*Frame)          : 0.424
Time code of first frame    : 12:18:24:12
Time code source            : Group of pictures header
GOP, Open/Closed            : Open
Stream size                 : 1.40 GiB (86%)

Audio #1
ID                          : 1021 (0x3FD)
Menu ID                     : 10225 (0x27F1)
Format                      : MPEG Audio
Format version              : Version 1
Format profile              : Layer 2
Codec ID                    : 3
Duration                    : 45 min 37 s
Bit rate mode               : Constant
Bit rate                    : 192 kb/s
Channel(s)                  : 2 channels
Sampling rate               : 48.0 kHz
Frame rate                  : 41.667 FPS (1152 SPF)
Compression mode            : Lossy
Delay relative to video     : -84 ms
Stream size                 : 62.6 MiB (4%)
Language                    : Spanish

Audio #2
ID                          : 1022 (0x3FE)
Menu ID                     : 10225 (0x27F1)
Format                      : MPEG Audio
Format version              : Version 1
Format profile              : Layer 2
Codec ID                    : 3
Duration                    : 45 min 37 s
Bit rate mode               : Constant
Bit rate                    : 128 kb/s
Channel(s)                  : 1 channel
Sampling rate               : 48.0 kHz
Frame rate                  : 41.667 FPS (1152 SPF)
Compression mode            : Lossy
Delay relative to video     : -108 ms
Stream size                 : 41.8 MiB (3%)
Language                    : Volapuk

Audio #3
ID                          : 1023 (0x3FF)
Menu ID                     : 10225 (0x27F1)
Format                      : MPEG Audio
Format version              : Version 1
Format profile              : Layer 2
Codec ID                    : 3
Duration                    : 45 min 37 s
Bit rate mode               : Constant
Bit rate                    : 128 kb/s
Channel(s)                  : 1 channel
Sampling rate               : 48.0 kHz
Frame rate                  : 41.667 FPS (1152 SPF)
Compression mode            : Lossy
Delay relative to video     : -108 ms
Stream size                 : 41.8 MiB (3%)
Language                    : Spanish
Language, more info         : Visual impaired commentary

Code:
General
ID                          : 1064 (0x428)
Complete name               : D:\TV\REC\2020-03-22_00-25-35.ts
Format                      : MPEG-TS
File size                   : 1.37 GiB
Duration                    : 52 min 15 s
Overall bit rate mode       : Variable
Overall bit rate            : 3 765 kb/s

Video
ID                          : 163 (0xA3)
Menu ID                     : 30761 (0x7829)
Format                      : AVC
Format/Info                 : Advanced Video Codec
Format profile              : High@L4
Format settings             : CABAC / 4 Ref Frames
Format settings, CABAC      : Yes
Format settings, Reference  : 4 frames
Format settings, GOP        : M=8, N=24
Codec ID                    : 27
Duration                    : 52 min 14 s
Bit rate                    : 3 191 kb/s
Width                       : 1 920 pixels
Height                      : 1 080 pixels
Display aspect ratio        : 16:9
Frame rate                  : 25.000 FPS
Color space                 : YUV
Chroma subsampling          : 4:2:0
Bit depth                   : 8 bits
Scan type                   : Interlaced
Scan type, store method     : Separated fields
Scan order                  : Top Field First
Bits/(Pixel*Frame)          : 0.062
Stream size                 : 1.16 GiB (85%)
Color range                 : Limited

Audio #1
ID                          : 98 (0x62)
Menu ID                     : 30761 (0x7829)
Format                      : AC-3
Format/Info                 : Audio Coding 3
Commercial name             : Dolby Digital
Codec ID                    : 6
Duration                    : 52 min 15 s
Bit rate mode               : Constant
Bit rate                    : 192 kb/s
Channel(s)                  : 2 channels
Channel layout              : L R
Sampling rate               : 48.0 kHz
Frame rate                  : 31.250 FPS (1536 SPF)
Compression mode            : Lossy
Delay relative to video     : -786 ms
Stream size                 : 71.8 MiB (5%)
Language                    : Spanish
Language, more info         : Clean effects
Service kind                : Complete Main

Audio #2
ID                          : 99 (0x63)
Menu ID                     : 30761 (0x7829)
Format                      : AC-3
Format/Info                 : Audio Coding 3
Commercial name             : Dolby Digital
Codec ID                    : 6
Duration                    : 52 min 15 s
Bit rate mode               : Constant
Bit rate                    : 192 kb/s
Channel(s)                  : 2 channels
Channel layout              : L R
Sampling rate               : 48.0 kHz
Frame rate                  : 31.250 FPS (1536 SPF)
Compression mode            : Lossy
Delay relative to video     : -786 ms
Stream size                 : 71.8 MiB (5%)
Language                    : qaa
Language, more info         : Clean effects
Service kind                : Complete Main


Any help?

Thanks a lot

omard4dr

Posts : 3
Join date : 2020-04-13

Back to top Go down

Can't play some files after clean install windows 10 Empty Re: Can't play some files after clean install windows 10

Post by Admin on Mon Apr 13, 2020 4:38 pm

Most likely a problem with your graphics driver. Update/re-install the driver.

If that doesn't help, try a different video renderer in MPC.
MPC options > Playback > Output

Admin
Admin

Posts : 5465
Join date : 2011-06-17

https://codecs.forumotion.net

Back to top Go down

Can't play some files after clean install windows 10 Empty Re: Can't play some files after clean install windows 10

Post by Admin on Mon Apr 13, 2020 4:39 pm

Copy this log here first, so I can see your current system details:
Codec Tweak Tool > Generate Log

Admin
Admin

Posts : 5465
Join date : 2011-06-17

https://codecs.forumotion.net

Back to top Go down

Can't play some files after clean install windows 10 Empty Re: Can't play some files after clean install windows 10

Post by omard4dr on Mon Apr 13, 2020 6:15 pm

Admin wrote:Copy this log here first, so I can see your current system details:
Codec Tweak Tool > Generate Log

Intel Hd Graphics 4600 driver is udapted to lastest. Playing with render on DVBViewer none of them works (even MadVR), with VMR7 and VMR9 randomly one frame shows frezzed and eventually aplication crash.

Log:
Code:
Codec Tweak Tool | Log file | Generated at 2020-04-13 18:58:46

#####  System Information  #####

OS:           Windows 10 Enterprise (10.00.18363) (x64)
CPU name:     Intel(R) Core(TM) i5-4460 CPU @ 3.20GHz
CPU details:  3200 MHz | 4 core(s) | Family 6 Model 60 Stepping 3
Memory:       16256 MB
Screen size:  1920x1080 (32bits) (59Hz)
GPU:          Intel(R) HD Graphics 4600
              VendorID: 8086, DeviceID: 0412
GPU memory:   1024 MB
GPU driver:   igdumdim64.dll (Version 20.19.15.5126) (1-21-2020)
Audio device: Realtek High Definition Audio
              VendorID: 10ec, DeviceID: 0887, SubSys: 1458a182
Audio driver: RTKVHD64.sys (Version 6.0.1.8228) (8-8-2017)

#####  K-Lite Codec Pack  #####

KLCP version: 15.4.4
KLCP type:    mega

Speaker conf: 2.0

MPC renderer: EVR CP
MPC subs:     ISR
MPC audio:    System Default
MPC decoder:  h264=DXVA2N hevc=0 vp9=0 vc1=0 mpeg2=0

#####  Decoder Settings #####

LAV Video:
H264=1 HEVC=1 VP9=1 VC1=0 MPEG2=1 MPEG4=1 WMV3=0

LAV Audio:
MP3=1 AC3=1 DTS=1 DTSHD=1 EAC3=1 TRUEHD=1 AAC=1 Vorbis=1 LPCM=1 WMA=0

#####  DirectShow Filters (32-bit)  #####

(A total of 78 filters, 0 shown, 78 hidden)

#####  DirectShow Filters (64-bit)  #####

(A total of 75 filters, 0 shown, 75 hidden)

#####  ICM Class Manager (32-bit)  #####

(A total of 3 filters, 0 shown, 3 hidden)

#####  ICM Class Manager (64-bit)  #####

(A total of 3 filters, 0 shown, 3 hidden)

#####  Default source filters (32-bit)  #####

(A total of 64 default source filters, 0 shown, 64 hidden)

#####  Default source filters (64-bit)  #####

(A total of 56 default source filters, 0 shown, 56 hidden)

#####  ACM and VFW Codecs (32-bit)  #####

(A total of 20 codecs, 0 shown, 20 hidden)

#####  ACM and VFW Codecs (64-bit)  #####

(A total of 18 codecs, 0 shown, 18 hidden)

Thanks!

omard4dr

Posts : 3
Join date : 2020-04-13

Back to top Go down

Can't play some files after clean install windows 10 Empty Re: Can't play some files after clean install windows 10

Post by omard4dr on Mon Apr 13, 2020 11:16 pm


OK:

First one doesn't work (it is the same one that was installed before). Second one doesn't work neither (I think this one is the same that Windows install on fresh OS install).

Oldest one available v15.40.42.5063 (dated 3/19/2019) work like a charm.

Thanks a lot!! So... Can you guess where the problem is on latest versions?

omard4dr

Posts : 3
Join date : 2020-04-13

Back to top Go down

Can't play some files after clean install windows 10 Empty Re: Can't play some files after clean install windows 10

Post by Admin on Tue Apr 14, 2020 3:34 pm

I don't know what might be wrong with the newer Intel drivers.

Admin
Admin

Posts : 5465
Join date : 2011-06-17

https://codecs.forumotion.net

Back to top Go down

Can't play some files after clean install windows 10 Empty Re: Can't play some files after clean install windows 10

Post by Sponsored content


Sponsored content


Back to top Go down

Back to top


 
Permissions in this forum:
You cannot reply to topics in this forum