Codec Guide
Would you like to react to this message? Create an account in a few clicks or log in to continue.

AC3 Stereo vs. Mpeg Audio

Go down

AC3 Stereo vs. Mpeg Audio Empty AC3 Stereo vs. Mpeg Audio

Post by dani23 on Sun Apr 26, 2015 3:47 pm

Hi there

BBC broadcasts two audio tracks, 192kbps AC-3 audio and 256kbps MPEG audio. Which one is better? I only wish to keep one of the two.

Here's the mediainfo:

Audio #1
ID : 5301 (0x14B5)
Menu ID : 1 (0x1)
Format : AC-3
Format/Info : Audio Coding 3
Mode extension : CM (complete main)
Format settings, Endianness : Big
Codec ID : 129
Duration : 58mn 49s
Bit rate mode : Constant
Bit rate : 192 Kbps
Channel(s) : 2 channels
Channel positions : Front: L R
Sampling rate : 48.0 KHz
Bit depth : 16 bits
Compression mode : Lossy
Stream size : 80.8 MiB (2%)
Language : English

Audio #2
ID : 5302 (0x14B6)
Menu ID : 1 (0x1)
Format : MPEG Audio
Format version : Version 1
Format profile : Layer 2
Codec ID : 3
Duration : 58mn 49s
Bit rate mode : Constant
Bit rate : 256 Kbps
Channel(s) : 2 channels
Sampling rate : 48.0 KHz
Compression mode : Lossy
Stream size : 108 MiB (2%)
Language : nar

Thanks again.

dani23

Posts : 14
Join date : 2015-01-28

Back to top Go down

AC3 Stereo vs. Mpeg Audio Empty Re: AC3 Stereo vs. Mpeg Audio

Post by Admin on Tue Apr 28, 2015 1:49 pm

I would pick the AC3 one.

Admin
Admin

Posts : 5445
Join date : 2011-06-17

https://codecs.forumotion.net

Back to top Go down

AC3 Stereo vs. Mpeg Audio Empty Re: AC3 Stereo vs. Mpeg Audio

Post by dani23 on Tue Apr 28, 2015 1:55 pm

Do you have a specific reason for choosing AC3 over mp2?

dani23

Posts : 14
Join date : 2015-01-28

Back to top Go down

AC3 Stereo vs. Mpeg Audio Empty Re: AC3 Stereo vs. Mpeg Audio

Post by Sponsored content


Sponsored content


Back to top Go down

Back to top


 
Permissions in this forum:
You cannot reply to topics in this forum