How to make K-Lite to support Win10 's "movie and TV" Play 4k.mkv video?

Go down

How to make K-Lite to support Win10 's "movie and TV" Play 4k.mkv video?

Post by tauyyy on Fri Jul 13, 2018 2:32 am

Hello,

I installed the Mega version, but I found it does not to support the win10's 'movie and TV' player to play the 4k.mkv files, how do I set it up? Thank you! This is the file information:

General
Unique ID                   : 65392825175610104412735799271089255734 (0x31323334353637383930313233343536)
Complete name               : D:\Video\4K Talalpsee Glarus SWITZERLAND アルプス山脈 - YouTube.MKV
Format                      : Matroska
Format version              : Version 4 / Version 2
File size                   : 1.65 GiB
Duration                    : 14 min 12 s
Overall bit rate            : 16.6 Mb/s
Writing application         : IDMmkvlib0.1
Writing library             : IDMmkvlib0.1
Language                    : und

Video
ID                          : 1
Format                      : VP9
Codec ID                    : V_VP9
Duration                    : 14 min 12 s
Width                       : 3 840 pixels
Height                      : 2 160 pixels
Display aspect ratio        : 16:9
Frame rate mode             : Constant
Frame rate                  : 25.000 FPS
Default                     : Yes
Forced                      : No

Audio
ID                          : 2
Format                      : Opus
Codec ID                    : A_OPUS
Duration                    : 14 min 12 s
Channel(s)                  : 2 channels
Channel positions           : Front: L R
Sampling rate               : 48.0 kHz
Bit depth                   : 16 bits
Compression mode            : Lossy
Default                     : Yes
Forced                      : No


Last edited by tauyyy on Sun Jul 15, 2018 4:06 am; edited 2 times in total

tauyyy

Posts : 2
Join date : 2018-07-13

View user profile

Back to top Go down

Re: How to make K-Lite to support Win10 's "movie and TV" Play 4k.mkv video?

Post by Admin on Fri Jul 13, 2018 2:45 pm

The Movies & TV application is only able to use Media Foundation codecs. It does not use the codecs from K-Lite. You should try the MPC-HC player that is included with the codec pack.

If you really want to use Movies & TV, then I recommend using a different download tool. I get a playable file using "YouTube Video and Audio Downloader" extension for Firefox.

Format : WebM
Format version : Version 2
File size : 1.65 GiB
Duration : 14 min 12 s
Overall bit rate mode : Variable
Overall bit rate : 16.6 Mb/s
Writing application : Lavf57.36.100
Writing library : Lavf57.36.100

Video
ID : 1
Format : VP9
Codec ID : V_VP9
Duration : 14 min 12 s
Bit rate : 15.8 Mb/s
Width : 3 840 pixels
Height : 2 160 pixels
Display aspect ratio : 16:9
Frame rate mode : Constant
Frame rate : 25.000 FPS
Bits/(Pixel*Frame) : 0.076
Stream size : 1.57 GiB (95%)
Language : English
Default : Yes
Forced : No

Audio
ID : 2
Format : Vorbis
Format settings, Floor : 1
Codec ID : A_VORBIS
Duration : 14 min 12 s
Bit rate mode : Variable
Bit rate : 128 kb/s
Channel(s) : 2 channels
Sampling rate : 44.1 kHz
Compression mode : Lossy
Stream size : 13.0 MiB (1%)
Writing application : Google
Language : English
Default : Yes
Forced : No

Admin
Admin

Posts : 4189
Join date : 2011-06-17

View user profile http://codecs.forumotion.net

Back to top Go down

Re: How to make K-Lite to support Win10 's "movie and TV" Play 4k.mkv video?

Post by tauyyy on Sat Jul 14, 2018 12:13 pm

Thank you very much! When I updated to the Win10 1803, this problem was solved.

tauyyy

Posts : 2
Join date : 2018-07-13

View user profile

Back to top Go down

Re: How to make K-Lite to support Win10 's "movie and TV" Play 4k.mkv video?

Post by Sponsored content


Sponsored content


Back to top Go down

Back to top


 
Permissions in this forum:
You cannot reply to topics in this forum