MKV Video stutters

View previous topic View next topic Go down

MKV Video stutters

Post by transvin on Mon Jan 30, 2017 2:03 pm

hi all,

I am trying to watch the office's episodes created by MRSK[CTTV]. I'm using the K-Lite mega of latest build.

These files are very stuttering on k-lite while they play just fine in VLC and windows media player.

I've used many options like frame time correction, vsync, and many others, none fixed it.

I've attached the file details as a spoiler. I hope to find a fix for this.

thank you and have a good day

vin

file details:

General
Unique ID                   : 113386347114905363683386895291760660422 (0x554D6A86CBD9A4160235E6F04C564FC6)
Complete name               : F:\TV\The.Office.US.S05.Season.5.Complete.720p.HDTV.x264-MRSK [CTTV]\The.Office.US.S05E02.720p.HDTV.X264-MRSK.mkv
Format                      : Matroska
Format version              : Version 2
File size                   : 408 MiB
Duration                    : 21 min 4 s
Overall bit rate            : 2 707 kb/s
Writing application         : Lavf54.29.104
Writing library             : Lavf54.29.104 / Lavf54.29.104

Video
ID                          : 1
Format                      : AVC
Format/Info                 : Advanced Video Codec
Codec ID                    : V_MPEG4/ISO/AVC
Duration                    : 21 min 4 s
Bit rate                    : 2 269 kb/s
Width                       : 1 280 pixels
Height                      : 720 pixels
Display aspect ratio        : 16:9
Frame rate mode             : Constant
Frame rate                  : 23.976 (24000/1001) FPS
Bits/(Pixel*Frame)          : 0.103
Stream size                 : 342 MiB (84%)
Default                     : Yes
Forced                      : No

Audio
ID                          : 2
Format                      : AC-3
Format/Info                 : Audio Coding 3
Mode extension              : CM (complete main)
Format settings, Endianness : Big
Codec ID                    : A_AC3
Duration                    : 21 min 4 s
Bit rate mode               : Constant
Bit rate                    : 384 kb/s
Channel(s)                  : 6 channels
Channel positions           : Front: L C R, Side: L R, LFE
Sampling rate               : 48.0 kHz
Frame rate                  : 31.250 FPS (1536 spf)
Bit depth                   : 16 bits
Compression mode            : Lossy
Stream size                 : 57.9 MiB (14%)
Default                     : Yes
Forced                      : No

transvin

Posts : 7
Join date : 2013-04-22

View user profile

Back to top Go down

Re: MKV Video stutters

Post by Admin on Mon Jan 30, 2017 4:41 pm

This fixes it for me:
MPC-HC menu > View > Renderer settings > Presentation > Frame time correction

What also works is to change the video renderer to MadVR.

You can also fix the files by remuxing them with MkvToolNix. This corrects the video timestamps.

Admin
Admin

Posts : 3625
Join date : 2011-06-17

View user profile http://codecs.forumotion.net

Back to top Go down

Re: MKV Video stutters

Post by transvin on Tue Jan 31, 2017 12:29 am

Sorry, the frame time correction I have tried earlier but didn't work. Isn't there any other wway than video conversion? There's too many files/

transvin

Posts : 7
Join date : 2013-04-22

View user profile

Back to top Go down

Re: MKV Video stutters

Post by Admin on Tue Jan 31, 2017 1:18 am

MPC-HC options > Playback > Output > Video Renderer
If "Enhanced Video Renderer (Custom Presenter)" is selected there, then frame time correction should work.
Otherwise you can select MadVR there.

MkvToolNix does not convert the video. It just adjusts the wrapper that contains the video. It only takes a few seconds per file.

Admin
Admin

Posts : 3625
Join date : 2011-06-17

View user profile http://codecs.forumotion.net

Back to top Go down

Re: MKV Video stutters

Post by transvin on Fri Feb 03, 2017 8:19 pm

Admin wrote:MPC-HC options > Playback > Output > Video Renderer
If "Enhanced Video Renderer (Custom Presenter)" is selected there, then frame time correction should work.
Otherwise you can select MadVR there.

MkvToolNix does not convert the video. It just adjusts the wrapper that contains the video. It only takes a few seconds per file.

thanks. That tool seems to do the job. But I was unable to convert all files at once because they got appended when I added many at once. I'm not sure what setting would work to get each file gets wrapped individually and not append.

transvin

Posts : 7
Join date : 2013-04-22

View user profile

Back to top Go down

Re: MKV Video stutters

Post by Admin on Fri Feb 03, 2017 8:55 pm

Click on the arrow of the button "Add to job queue" and select "Afterwards remove all source files". This will empty the source file list. You can do the same with the "start multiplexing" button.

Admin
Admin

Posts : 3625
Join date : 2011-06-17

View user profile http://codecs.forumotion.net

Back to top Go down

View previous topic View next topic Back to top


 
Permissions in this forum:
You cannot reply to topics in this forum