MPEG1 DVD playback.

View previous topic View next topic Go down

MPEG1 DVD playback.

Post by Samurai Cop on Fri Oct 09, 2015 5:18 pm

I tried playing a DVD I got in the mail yesterday, and it wouldn't play the individual vob files. Here's the media info.

General
Complete name : E:\VIDEO_TS\VTS_01_3.VOB
Format : MPEG-PS
File size : 799 MiB
Duration : 8s 384ms
Overall bit rate mode : Variable
Overall bit rate : 799 Mbps

Video
ID : 224 (0xE0)
Format : MPEG Video
Format version : Version 2
Format profile : Main@Main
Format settings, BVOP : Yes
Format settings, Matrix : Custom
Duration : 8s 375ms
Bit rate mode : Variable
Bit rate : 783 Mbps
Maximum bit rate : 7 500 Kbps
Width : 720 pixels
Height : 480 pixels
Display aspect ratio : 16:9
Frame rate : 29.970 fps
Standard : NTSC
Color space : YUV
Chroma subsampling : 4:2:0
Bit depth : 8 bits
Compression mode : Lossy
Bits/(Pixel*Frame) : 75.559
Time code of first frame : 01:43:05;05
Time code source : Group of pictures header
Stream size : 781 MiB (98%)

Audio #1
ID : 189 (0xBD)-128 (0x80)
Format : AC-3
Format/Info : Audio Coding 3
Mode extension : CM (complete main)
Format settings, Endianness : Big
Muxing mode : DVD-Video
Duration : 8s 384ms
Bit rate mode : Constant
Bit rate : 384 Kbps
Channel(s) : 6 channels
Channel positions : Front: L C R, Side: L R, LFE
Sampling rate : 48.0 KHz
Compression mode : Lossy
Delay relative to video : -159ms
Stream size : 393 KiB (0%)

Audio #2
ID : 189 (0xBD)-129 (0x81)
Format : AC-3
Format/Info : Audio Coding 3
Mode extension : CM (complete main)
Format settings, Endianness : Big
Muxing mode : DVD-Video
Duration : 8s 384ms
Bit rate mode : Constant
Bit rate : 192 Kbps
Channel(s) : 2 channels
Channel positions : Front: L R
Sampling rate : 48.0 KHz
Compression mode : Lossy
Stream size : 197 KiB (0%)

Text #1
ID : 189 (0xBD)-32 (0x20)
Format : RLE
Format/Info : Run-length encoding
Muxing mode : DVD-Video
Delay relative to video : 183ms

Text #2
ID : 189 (0xBD)-33 (0x21)
Format : RLE
Format/Info : Run-length encoding
Muxing mode : DVD-Video
Delay relative to video : 183ms

Text #3
ID : 189 (0xBD)-34 (0x22)
Format : RLE
Format/Info : Run-length encoding
Muxing mode : DVD-Video
Delay relative to video : 183ms

Text #4
ID : 189 (0xBD)-35 (0x23)
Format : RLE
Format/Info : Run-length encoding
Muxing mode : DVD-Video
Delay relative to video : 183ms

Text #5
ID : 189 (0xBD)-36 (0x24)
Format : RLE
Format/Info : Run-length encoding
Muxing mode : DVD-Video
Delay relative to video : 183ms

Text #6
ID : 189 (0xBD)-37 (0x25)
Format : RLE
Format/Info : Run-length encoding
Muxing mode : DVD-Video
Delay relative to video : 183ms

Menu

Plays just fine in Cyberlink PowerDVD, not even VLC can play this.

Samurai Cop

Posts : 17
Join date : 2015-08-18

View user profile

Back to top Go down

Re: MPEG1 DVD playback.

Post by Admin on Sat Oct 10, 2015 1:44 am

MediaInfo says it is MPEG-2, not MPEG-1.

Does it play if you open video_ts.ifo?

Admin
Admin

Posts : 2987
Join date : 2011-06-17

View user profile http://codecs.forumotion.net

Back to top Go down

Re: MPEG1 DVD playback.

Post by Samurai Cop on Sat Oct 10, 2015 2:41 am

My mistake, but it does play when opening video_ts. It plays when opening the folder through "Open DVD/BD." It just doesn't open the individual vob files.

Samurai Cop

Posts : 17
Join date : 2015-08-18

View user profile

Back to top Go down

Re: MPEG1 DVD playback.

Post by Admin on Sat Oct 10, 2015 10:20 am

Playback of individual VOB files does not always work, and it is unlikely that it will get fixed. The IFO files contain information that is required for correct playback in some cases. So open the VTS_*.IFO files instead. That is probably what PowerDVD does too.

MediaInfo as has trouble with the file, as it fails to determine the correct duration for the file.

Admin
Admin

Posts : 2987
Join date : 2011-06-17

View user profile http://codecs.forumotion.net

Back to top Go down

Re: MPEG1 DVD playback.

Post by Sponsored content Today at 9:18 am


Sponsored content


Back to top Go down

View previous topic View next topic Back to top


 
Permissions in this forum:
You cannot reply to topics in this forum