HDTV.x264-ASAP

View previous topic View next topic Go down

HDTV.x264-ASAP

Post by jlmeyer01 on Tue Mar 03, 2015 2:05 am

How do you get Klite Mega to play this file? I have tried version 11 and in windows media player - neither will work and I really don't want to spend the time converting - I get all my media from Eztv.ch

jlmeyer01

Posts : 7
Join date : 2015-03-03

View user profile

Back to top Go down

Re: HDTV.x264-ASAP

Post by Admin on Tue Mar 03, 2015 2:42 am

HDTV means the video was ripped from a HDYV source.
x264 means it was encoded using x264, which means it is H.264 video.
ASAP is the name of the release group.

The file is likely a .mkv or an .mp4 files, both of which are supported by the codec pack.

If the file does not play, it could mean you downloaded a fake file. What kind of error does Media Player Classic give?

Admin
Admin

Posts : 2977
Join date : 2011-06-17

View user profile http://codecs.forumotion.net

Back to top Go down

Re: HDTV.x264-ASAP

Post by jlmeyer01 on Tue Mar 03, 2015 2:27 pm

From Klite media player 11 - Can not render file
From Windows 7 Ultimate Media Player - Windows Media Player encountered a problem while playing the file - error C00D11B1 - Trying to play it as a sound file

Have tried multi programs to convert it to another format - all say invalid

As you can see they use the format alot - https://eztv.ch/shows/1193/eye-candy/

jlmeyer01

Posts : 7
Join date : 2015-03-03

View user profile

Back to top Go down

Re: HDTV.x264-ASAP

Post by Admin on Wed Mar 04, 2015 3:09 am

It sounds like the file is damaged.

Right-click on the file and select MediaInfo. Copy the output here.

Admin
Admin

Posts : 2977
Join date : 2011-06-17

View user profile http://codecs.forumotion.net

Back to top Go down

Re: HDTV.x264-ASAP

Post by jlmeyer01 on Wed Mar 04, 2015 3:50 am

General
Complete name : D:\--- Tv-Shows\--- Monday ---\Eye - Candy\Eye.Candy.S01E01.HDTV.x264-ASAP.mp4
File size : 289 MiB

jlmeyer01

Posts : 7
Join date : 2015-03-03

View user profile

Back to top Go down

Re: HDTV.x264-ASAP

Post by Admin on Wed Mar 04, 2015 4:17 am

The file is definitely damaged. Otherwise MediaInfo would have shown more information.

Admin
Admin

Posts : 2977
Join date : 2011-06-17

View user profile http://codecs.forumotion.net

Back to top Go down

Re: HDTV.x264-ASAP

Post by jlmeyer01 on Wed Mar 04, 2015 5:53 am

I see what you mean, so some one is posting damaged tv shows on EzTv.ch
I just checked another show - Eye.Candy.S01E06.HDTV.XviD-FUM.avi and got this:
General
Complete name : D:\--- Tv-Shows\--- Monday ---\Eye - Candy\Eye.Candy.S01E06.HDTV.XviD-FUM.avi
Format : AVI
Format/Info : Audio Video Interleave
File size : 346 MiB
Duration : 40mn 14s
Overall bit rate : 1 203 Kbps
Writing library : VirtualDub build 35491/release

Video
ID : 0
Format : MPEG-4 Visual
Format profile : Advanced Simple@L5
Format settings, BVOP : 2
Format settings, QPel : No
Format settings, GMC : No warppoints
Format settings, Matrix : Default (H.263)
Muxing mode : Packed bitstream
Codec ID : XVID
Codec ID/Hint : XviD
Duration : 40mn 14s
Bit rate : 1 066 Kbps
Width : 624 pixels
Height : 350 pixels
Display aspect ratio : 16:9
Frame rate : 23.976 fps
Color space : YUV
Chroma subsampling : 4:2:0
Bit depth : 8 bits
Scan type : Progressive
Compression mode : Lossy
Bits/(Pixel*Frame) : 0.204
Stream size : 307 MiB (89%)
Writing library : XviD 64

Audio
ID : 1
Format : MPEG Audio
Format version : Version 1
Format profile : Layer 3
Mode : Joint stereo
Mode extension : MS Stereo
Codec ID : 55
Codec ID/Hint : MP3
Duration : 40mn 14s
Bit rate mode : Constant
Bit rate : 128 Kbps
Channel(s) : 2 channels
Sampling rate : 48.0 KHz
Compression mode : Lossy
Stream size : 36.8 MiB (11%)
Alignment : Split accross interleaves
Interleave, duration : 42 ms (1.00 video frame)
Interleave, preload duratio : 500 ms

God, I am going to hate going back and redownloading all the corept shows :-(

jlmeyer01

Posts : 7
Join date : 2015-03-03

View user profile

Back to top Go down

Re: HDTV.x264-ASAP

Post by jlmeyer01 on Wed Mar 04, 2015 6:30 am

Ok, here is a head scratcher ???

The above file that was bad was not able to be played in K-Lite Media Player 11.0.1 Mega but when I downgraded to K-Lite Media Player 10.0.0 full the file played fine like there was nothing wrong:
General
Complete name : D:\--- Tv-Shows\--- Monday ---\Eye - Candy\Eye.Candy.S01E01.HDTV.x264-ASAP.mp4
File size : 289 MiB

Now says:
General
Unique ID : 188365464568115139443097148959136928333 (0x8DB5DE6E43E91C93996013414D93D24D)
Complete name : D:\--- Zero Day\Arrow.S03E05.720p.HDTV.X264-DIMENSION.mkv
Format : Matroska
Format version : Version 2
File size : 1 003 MiB
Duration : 42mn 4s
Overall bit rate : 3 333 Kbps
Encoded date : UTC 2014-11-05 23:03:32
Writing application : mkvmerge v3.1.0 ('Happy up here') built on Jan 19 2010 12:09:24
Writing library : libebml v0.7.9 + libmatroska v0.8.1

Video
ID : 1
Format : AVC
Format/Info : Advanced Video Codec
Format profile : High@L4.1
Format settings, CABAC : Yes
Format settings, ReFrames : 8 frames
Codec ID : V_MPEG4/ISO/AVC
Duration : 42mn 4s
Bit rate : 2 883 Kbps
Width : 1 280 pixels
Height : 720 pixels
Display aspect ratio : 16:9
Frame rate mode : Constant
Frame rate : 23.976 fps
Color space : YUV
Chroma subsampling : 4:2:0
Bit depth : 8 bits
Scan type : Progressive
Bits/(Pixel*Frame) : 0.130
Stream size : 868 MiB (86%)
Writing library : x264 core 142 r2479 dd79a61
Encoding settings : cabac=1 / ref=8 / deblock=1:-2:-2 / analyse=0x3:0x113 / me=umh / subme=9 / psy=1 / psy_rd=1.00:0.00 / mixed_ref=1 / me_range=24 / chroma_me=1 / trellis=1 / 8x8dct=1 / cqm=0 / deadzone=21,11 / fast_pskip=0 / chroma_qp_offset=-2 / threads=18 / lookahead_threads=2 / sliced_threads=0 / nr=0 / decimate=1 / interlaced=0 / bluray_compat=0 / constrained_intra=0 / bframes=5 / b_pyramid=2 / b_adapt=2 / b_bias=0 / direct=3 / weightb=1 / open_gop=0 / weightp=2 / keyint=250 / keyint_min=23 / scenecut=40 / intra_refresh=0 / rc_lookahead=50 / rc=crf / mbtree=1 / crf=18.0 / qcomp=0.60 / qpmin=0 / qpmax=69 / qpstep=4 / ip_ratio=1.40 / aq=1:1.00
Language : English
Default : No
Forced : No

Audio
ID : 2
Format : AC-3
Format/Info : Audio Coding 3
Mode extension : CM (complete main)
Format settings, Endianness : Big
Codec ID : A_AC3
Duration : 42mn 4s
Bit rate mode : Constant
Bit rate : 384 Kbps
Channel count : 6 channels
Channel positions : Front: L C R, Side: L R, LFE
Sampling rate : 48.0 KHz
Bit depth : 16 bits
Compression mode : Lossy
Stream size : 116 MiB (12%)
Default : Yes
Forced : No


jlmeyer01

Posts : 7
Join date : 2015-03-03

View user profile

Back to top Go down

Re: HDTV.x264-ASAP

Post by Admin on Wed Mar 04, 2015 7:20 am

Very strange. Both contain the exact same version of MediaInfo.

Does everything play again now?

I suggest you scan your harddrive for errors. Do you have any problems with other programs being unstable or acting stangely? If so, I would also recommend running a tool to test your computer's RAM for errors.

Admin
Admin

Posts : 2977
Join date : 2011-06-17

View user profile http://codecs.forumotion.net

Back to top Go down

Re: HDTV.x264-ASAP

Post by jlmeyer01 on Wed Mar 04, 2015 8:10 am

Yes everything plays fine, it seams when I upgraded to 11.0.1 some of the codec got corrupted, but now that I am using 10.0.0 full everything plays fine.

I am using:Amd A6-5400k Apu with Radeon Graphics 4.09Ghz with 4gigs of ram

jlmeyer01

Posts : 7
Join date : 2015-03-03

View user profile

Back to top Go down

Re: HDTV.x264-ASAP

Post by Admin on Thu Mar 05, 2015 2:31 am

I highly doubt it was because of the update. That doesn't touch MediaInfo or break anything else. Other programs such as converters often mess with the codecs, so that could be a cause. Re-installing the pack fixes such problems.

11.0.2 is available.

Admin
Admin

Posts : 2977
Join date : 2011-06-17

View user profile http://codecs.forumotion.net

Back to top Go down

Re: HDTV.x264-ASAP

Post by jlmeyer01 on Thu Mar 05, 2015 3:05 am

I have downloaded and reinstall and updated 11.0.2 from http://www.codecguide.com/download_k-lite_codec_pack_mega.htm

Time and Time again and it still does the same thing with the video, So for right not I am going to stick with 10.0.0 full - Thanks for all your help with this problem.

jlmeyer01

Posts : 7
Join date : 2015-03-03

View user profile

Back to top Go down

Re: HDTV.x264-ASAP

Post by Admin on Thu Mar 05, 2015 3:08 am

Can you post this information? Maybe I can find the cause of the problem.
Codec Tweak Tool > Generate Log

Admin
Admin

Posts : 2977
Join date : 2011-06-17

View user profile http://codecs.forumotion.net

Back to top Go down

Re: HDTV.x264-ASAP

Post by Sponsored content Today at 5:42 pm


Sponsored content


Back to top Go down

View previous topic View next topic Back to top


 
Permissions in this forum:
You cannot reply to topics in this forum