After updating Media Player Classic, an AVI file won't play anymore.

View previous topic View next topic Go down

After updating Media Player Classic, an AVI file won't play anymore.

Post by uchuuhejjihoggu on Mon Mar 11, 2013 10:36 pm

It's just a black screen. I tried using different splitters, but nothing worked.

uchuuhejjihoggu

Posts : 8
Join date : 2012-08-17

View user profile

Back to top Go down

Re: After updating Media Player Classic, an AVI file won't play anymore.

Post by Admin on Tue Mar 12, 2013 12:45 am

Do other files play properly?
Which video decoder is listed under "Play > Filters" in MPC?

Admin
Admin

Posts : 2977
Join date : 2011-06-17

View user profile http://codecs.forumotion.net

Back to top Go down

Re: After updating Media Player Classic, an AVI file won't play anymore.

Post by uchuuhejjihoggu on Wed Mar 13, 2013 12:24 am

Yep, as far as I can tell no other videos are having a problem.

LAV Video Decoder is shown in that menu.

uchuuhejjihoggu

Posts : 8
Join date : 2012-08-17

View user profile

Back to top Go down

Re: After updating Media Player Classic, an AVI file won't play anymore.

Post by Admin on Wed Mar 13, 2013 3:14 am

Can you tell me where you downloaded that specific file? Then I can get it for testing and send it to the developer of LAV Video decoder in case there is a bug.

Admin
Admin

Posts : 2977
Join date : 2011-06-17

View user profile http://codecs.forumotion.net

Back to top Go down

Re: After updating Media Player Classic, an AVI file won't play anymore.

Post by uchuuhejjihoggu on Sun Mar 24, 2013 4:40 pm

I have no idea where I downloaded it from. I guess it's no big deal, it's just one file.

uchuuhejjihoggu

Posts : 8
Join date : 2012-08-17

View user profile

Back to top Go down

Re: After updating Media Player Classic, an AVI file won't play anymore.

Post by widhie75 on Tue Apr 02, 2013 4:43 pm

I finally found .AVI problem too........ these AVI DV are rendered by Adobe Premiere Pro.

These AVI DV won't play using MPC, only first frame appeared. Sounds is OK.
Video decoder listed under "Filters" are: Default DirectSound Device, VMR 9 (renderless), Audio Switcher> , LAV Video Decoder, AVI Splitter, File Source (Async)

But No problem playing with Windows Media Player (WinXP)


just info:
these AVI also fail being imported by TMPEG Express 3.
TMPEG Express 3 using VFAPI (Direct Show Multimedia Reader) to import .AVI
(maybe this DirectShow using same shared latest driver/codec LAV, AVI Splitter, or else ? )

Code:

General
Complete name                            : E:\Homework Talkshow\Render\Fadli Q-Design.avi
Format                                  : AVI
Format/Info                              : Audio Video Interleave
Commercial name                          : DVCPRO
File size                                : 794 MiB
Duration                                : 3mn 40s
Overall bit rate mode                    : Constant
Overall bit rate                        : 30.3 Mbps

Video
ID                                      : 0
Format                                  : DV
Commercial name                          : DVCPRO
Codec ID                                : dvsd
Codec ID/Hint                            : Sony
Duration                                : 3mn 40s
Bit rate mode                            : Constant
Bit rate                                : 24.4 Mbps
Encoded bit rate                        : 28.8 Mbps
Width                                    : 720 pixels
Height                                  : 576 pixels
Display aspect ratio                    : 4:3
Frame rate mode                          : Constant
Frame rate                              : 25.000 fps
Standard                                : PAL
Color space                              : YUV
Chroma subsampling                      : 4:2:0
Bit depth                                : 8 bits
Scan type                                : Interlaced
Scan order                              : Bottom Field First
Compression mode                        : Lossy
Bits/(Pixel*Frame)                      : 2.357
Stream size                              : 754 MiB (95%)

Audio
ID                                      : 1
Format                                  : PCM
Format settings, Endianness              : Little
Format settings, Sign                    : Signed
Codec ID                                : 1
Duration                                : 3mn 40s
Bit rate mode                            : Constant
Bit rate                                : 1 536 Kbps
Channel(s)                              : 2 channels
Sampling rate                            : 48.0 KHz
Bit depth                                : 16 bits
Stream size                              : 40.3 MiB (5%)
Alignment                                : Aligned on interleaves
Interleave, duration                    : 996 ms (24.90 video frames)
Interleave, preload duration            : 1000 ms


widhie75

Posts : 5
Join date : 2012-09-10

View user profile

Back to top Go down

Re: After updating Media Player Classic, an AVI file won't play anymore.

Post by Admin on Wed Apr 03, 2013 2:05 am

Can you upload a sample file for me?
http://www.mediafire.com

Codec Tweak Tool > Preferred Splitters > try with LAV Splitter

Admin
Admin

Posts : 2977
Join date : 2011-06-17

View user profile http://codecs.forumotion.net

Back to top Go down

Re: After updating Media Player Classic, an AVI file won't play anymore.

Post by Sponsored content Today at 9:11 pm


Sponsored content


Back to top Go down

View previous topic View next topic Back to top


 
Permissions in this forum:
You cannot reply to topics in this forum