On MPC vers.16.9.0 it shows divers Video sideways

2 posters

Go down

On MPC vers.16.9.0 it shows divers Video sideways Empty On MPC vers.16.9.0 it shows divers Video sideways

Post by Cmike Sat Mar 26, 2022 7:50 pm

Diverse Videos are show sideways,by the newest version of MPC-HC ( Nightly,64-bit)

the older Version of MPC-HC it was never a problem.
MPC-HC (Nightly, 64-bit)
------------------------

Build information:
   Version:            1.9.19.42 (455fed020)
   Compiler:           MSVC v19.29.30140
   Build date:         Feb 28 2022

LAV Filters:
   LAV Splitter:       0.76.1.0
   LAV Video:          0.76.1.0
   LAV Audio:          0.76.1.0
   FFmpeg compiler:    MinGW-w64 GCC 10.2.0

Operating system:
   Name:               Windows 10 (Build 20H2)
   Version:            10.0.19042 (64-bit)

Hardware:
   CPU:                Intel(R) Celeron(R) CPU  N2840  @ 2.16GHz
   GPU:                Intel(R) HD Graphics (driver version: 10.18.10.5161)
This are the Mediainfo of thatch Movie
Format                      : MPEG-4
Format profile              : Base Media
Codec ID                    : isom (isom/iso2/avc1/mp41)
File size                   : 131 MiB
Duration                    : 32 min 8 s
Overall bit rate            : 571 kb/s
Writing application         : Lavf58.29.100

Video
ID                          : 1
Format                      : AVC
Format/Info                 : Advanced Video Codec
Format profile              : High@L3
Format settings             : CABAC / 2 Ref Frames
Format settings, CABAC      : Yes
Format settings, Reference  : 2 frames
Codec ID                    : avc1
Codec ID/Info               : Advanced Video Coding
Duration                    : 32 min 8 s
Bit rate                    : 435 kb/s
Width                       : 638 pixels
Height                      : 360 pixels
Display aspect ratio        : 16:9
Frame rate mode             : Constant
Frame rate                  : 25.000 FPS
Color space                 : YUV
Chroma subsampling          : 4:2:0
Bit depth                   : 8 bits
Scan type                   : Progressive
Bits/(Pixel*Frame)          : 0.076
Stream size                 : 100 MiB (76%)
Codec configuration box     : avcC

Audio
ID                          : 2
Format                      : AAC LC
Format/Info                 : Advanced Audio Codec Low Complexity
Codec ID                    : mp4a-40-2
Duration                    : 32 min 8 s
Bit rate mode               : Constant
Bit rate                    : 132 kb/s
Channel(s)                  : 2 channels
Channel layout              : L R
Sampling rate               : 44.1 kHz
Frame rate                  : 43.066 FPS (1024 SPF)
Compression mode            : Lossy
Stream size                 : 29.9 MiB (23%)
Default                     : Yes
Alternate group             : 1

any fix for this problem with the new version ?

Cmike

Posts : 3
Join date : 2022-03-26

Back to top Go down

On MPC vers.16.9.0 it shows divers Video sideways Empty Re: On MPC vers.16.9.0 it shows divers Video sideways

Post by Admin Sun Mar 27, 2022 11:12 pm

That MPC-HC version is not from 16.9.0 but an older version of the pack. You need to update.

The problem should not exist in latest version.

Admin
Admin

Posts : 6491
Join date : 2011-06-17

https://codecs.forumotion.net

Back to top Go down

On MPC vers.16.9.0 it shows divers Video sideways Empty Re: On MPC vers.16.9.0 it shows divers Video sideways

Post by Cmike Tue Mar 29, 2022 4:11 pm

i get the problem with version 16.9.0 Sad so i downgrade it and the problem where gone. Very Happy

Cmike

Posts : 3
Join date : 2022-03-26

Back to top Go down

On MPC vers.16.9.0 it shows divers Video sideways Empty Re: On MPC vers.16.9.0 it shows divers Video sideways

Post by Admin Tue Mar 29, 2022 10:46 pm

Give me a link to a video that is displayed wrong.

Admin
Admin

Posts : 6491
Join date : 2011-06-17

https://codecs.forumotion.net

Back to top Go down

On MPC vers.16.9.0 it shows divers Video sideways Empty Re: On MPC vers.16.9.0 it shows divers Video sideways

Post by Cmike Sun Apr 03, 2022 8:57 am

i have install the last new version and the problem is solve .

Cmike

Posts : 3
Join date : 2022-03-26

Back to top Go down

On MPC vers.16.9.0 it shows divers Video sideways Empty Re: On MPC vers.16.9.0 it shows divers Video sideways

Post by Sponsored content


Sponsored content


Back to top Go down

Back to top


 
Permissions in this forum:
You cannot reply to topics in this forum