Sony A7S III , HEVC - 100.000 FPS Unable to play without cuts

2 posters

Go down

Sony A7S III ,  HEVC - 100.000 FPS   Unable to play without cuts Empty Sony A7S III , HEVC - 100.000 FPS Unable to play without cuts

Post by calbart Sun Dec 13, 2020 12:24 pm

Hello I have recently purchased a Sony A7S III.
Install Windows codec for your Movies & TV player
https://www.microsoft.com/es-es/p/extensiones-de-video-hevc/9nmzlz57r3t7?activetab=pivot:overviewtab
But after installation I get this error
Sony A7S III ,  HEVC - 100.000 FPS   Unable to play without cuts Captur10
So I decided to keep using my K - codec Pack
MPC-HC (Nightly, 64-bit) Version: 1.9.8.78 (4cb11b747)
    Compiler: MSVC v19.26.28806
    Build date: Dec 11 2020
In my opinion I think that although you are a few years old, my computer is quite powerful:
Hardware:
 CPU: Intel (R) Core (TM) i7 CPU X 980 @ 3.33GHz
 GPU1: NVIDIA GeForce GTX 1050 Ti (driver version: 27.21.14.5730)
 RAM: 24gb

I leave you the file and system data and a video of how I reproduce it.


I honestly don't know how to fix it, because I want to record at 4k 120fps

It is an incredible camera, but I am not able to display the videos correctly with:
Edition - Windows 10 Pro / Version - 20H2 / Installed on 10/12/2020
Operating system version 19042.685
I'm using:
MPC-HC (Nightly, 64-bit)
------------------------

Build information:
    Version: 1.9.8.78 (4cb11b747)
    Compiler: MSVC v19.26.28806
    Build date: Dec 11 2020

LAV Filters:
    LAV Splitter: 0.74.1.92
    LAV Video: 0.74.1.92
    LAV Audio: 0.74.1.92
    FFmpeg compiler: MinGW-w64 GCC 9.3.0

Operating system:
    Name: Windows NT 10.0 (build 19042)
    Version: 10.0 (64-bit)

Hardware:
    CPU: Intel (R) Core (TM) i7 CPU X 980 @ 3.33GHz
    GPU1: NVIDIA GeForce GTX 1050 Ti (driver version: 27.21.14.5730)
    GPU2: NVIDIA GeForce GTX 1050 Ti (driver version: 27.21.14.5730)

Sony camera files are as follows:
Video: HVC1 3840x2160 100fps 280778kbps [V: Video Media Handler (hevc rext L5.2, yuv422p10le, 3840x2160, 280778 kb / s)]
Audio: QT PCM 48000Hz stereo 1536kbps [A: Sound Media Handler (pcm_s16be, 48000 Hz, 2 channels, s16, 1536 kb / s)]

general
Complete name: C: \ Users \ infoc \ Downloads \ C0391.MP4
Format: XAVC
Codec ID: XAVC (XAVC / mp42 / iso2 / nras)
File size: 800 MiB
Duration: 23 s 40 ms
Overall bit rate: 291 Mb / s
Encoded date: UTC 2020-11-22 14:16:42
Tagged date: UTC 2020-11-22 14:16:42

Video
ID: 1
Format: HEVC
Format / Info: High Efficiency Video Coding
Format profile: Format Range @ L5.2 @ High
Codec ID: hvc1
Codec ID / Info: High Efficiency Video Coding
Duration: 23 s 40 ms
Bit rate: 281 Mb / s
Width: 3 840 pixels
Height: 2 160 pixels
Display aspect ratio: 16: 9
Frame rate mode: Constant
Frame rate: 100,000 FPS
Color space: YUV
Chroma subsampling: 4: 2: 2
Bit depth: 10 bits
Bits / (Pixel * Frame): 0.339
Stream size: 771 MiB (96%)
Encoded date: UTC 2020-11-22 14:16:42
Tagged date: UTC 2020-11-22 14:16:42
Color range: Limited
Primary color: BT.709
Transfer characteristics: BT.709
Matrix coefficients: BT.709
Codec configuration box: hvcC

Audio
ID: 2
Format: PCM
Format settings: Big / Signed
Codec ID: twos
Duration: 23 s 40 ms
Bit rate mode: Constant
Bit rate: 1 536 kb / s
Channel (s): 2 channels
Sampling rate: 48.0 kHz
Bit depth: 16 bits
Stream size: 4.22 MiB (1%)
Encoded date: UTC 2020-11-22 14:16:42
Tagged date: UTC 2020-11-22 14:16:42

Other
Type: meta
Duration: 23 s 40 ms

calbart

Posts : 2
Join date : 2020-12-13

Back to top Go down

Sony A7S III ,  HEVC - 100.000 FPS   Unable to play without cuts Empty Re: Sony A7S III , HEVC - 100.000 FPS Unable to play without cuts

Post by Admin Sun Dec 13, 2020 2:49 pm

That codec is made by Microsoft.

The problem seems to be that your video uses HEVC Format Range (rext) profile and 4:2:2 chroma sampling. That variant of the HEVC video format cant not be decoded with hardware acceleration, so that is the reason why it is not working with that decoder.

And even with "normal" HEVC, you hardware can only decode up to 60 fps.

So only suggestion I have for you is to convert the video to normal HEVC with 60fps (if you record at 120fps) or 50 fps (if you record at 100fps). Or maybe your camera offers options to record with different settings.

Admin
Admin

Posts : 6164
Join date : 2011-06-17

https://codecs.forumotion.net

Back to top Go down

Sony A7S III ,  HEVC - 100.000 FPS   Unable to play without cuts Empty Re: Sony A7S III , HEVC - 100.000 FPS Unable to play without cuts

Post by calbart Sun Dec 13, 2020 5:47 pm

Admin wrote:That codec is made by Microsoft.

The problem seems to be that your video uses HEVC Format Range (rext) profile and 4:2:2 chroma sampling. That variant of the HEVC video format cant not be decoded with hardware acceleration, so that is the reason why it is not working with that decoder.

And even with "normal" HEVC, you hardware can only decode up to 60 fps.

So only suggestion I have for you is to convert the video to normal HEVC with 60fps (if you record at 120fps) or 50 fps (if you record at 100fps). Or maybe your camera offers options to record with different settings.

I understand that you are talking about the Microsoft codec, but my question is because the sample video is with the player and codecs from k-codec Pack
That is, I do not understand the hardware accelerator much, is it the graph itself? So you should buy a more powerful one.?
In that case, what would your advice be?
Thank you.

calbart

Posts : 2
Join date : 2020-12-13

Back to top Go down

Sony A7S III ,  HEVC - 100.000 FPS   Unable to play without cuts Empty Re: Sony A7S III , HEVC - 100.000 FPS Unable to play without cuts

Post by Admin Sun Dec 13, 2020 10:11 pm

The Microsoft codec is the one you installed for the Movies&TV player.

Media Player Classic from K-Lite can play it as shown in your Youtube video. But decoding is not smooth because the video is too hard to decode in realtime and hardware acceleration is not possible.

You need a much faster processor (CPU).
Or you need to convert the video to lower framerate or to other video format such as H.264.

Admin
Admin

Posts : 6164
Join date : 2011-06-17

https://codecs.forumotion.net

Back to top Go down

Sony A7S III ,  HEVC - 100.000 FPS   Unable to play without cuts Empty Re: Sony A7S III , HEVC - 100.000 FPS Unable to play without cuts

Post by Admin Sun Dec 13, 2020 10:18 pm

For example the new AMD Ryzen CPUs are 4 to 5 times faster than your current CPU.
https://www.cpubenchmark.net/high_end_cpus.html

Admin
Admin

Posts : 6164
Join date : 2011-06-17

https://codecs.forumotion.net

Back to top Go down

Sony A7S III ,  HEVC - 100.000 FPS   Unable to play without cuts Empty Re: Sony A7S III , HEVC - 100.000 FPS Unable to play without cuts

Post by Sponsored content


Sponsored content


Back to top Go down

Back to top


 
Permissions in this forum:
You cannot reply to topics in this forum