V.14.5.5 Mega explorer crash - avcodec-ics-58.dll

Go down

V.14.5.5 Mega explorer crash - avcodec-ics-58.dll

Post by Margol on Thu Nov 08, 2018 8:38 am

Installed Version 14.5.5 Mega and I cant use explorer.exe in windows 10 64bit. And is crashing and restarting on every attempt of starting up filemanager. Had to uninstall and fixed the problem without restart.
Its a clean install with no problems. Advanced install to change audio to 5.1.

Programname med fault: explorer.exe, version: 10.0.17134.165, tidsangivelse: 0x4031a9f8
Modulname med fault: avcodec-ics-58.dll, version: 58.30.100.0, tidsangivelse: 0x00000000
Exceptioncode: 0xc0000094
Feilforskyvning: 0x00000000001ba6cc
Wrong prosess-ID: 0x6e8
Wrong startttime for program: 0x01d4773781d38735
Feil programbane: C:\Windows\explorer.exe
Feil modulbane: C:\Program Files (x86)\K-Lite Codec Pack\Icaros\64-bit\avcodec-ics-58.dll
Rapport-ID: b21e286f-8eb1-42f4-b108-1c9f6e5f90ca

Cant find a sollution in FAQ or on the forums. Its a new pc, I buildt for the livingroom.
Win 10 pro 64. x299 Itx, 7920x, 32gb ram, Samsung m.2 970pro 512, 2x Samsung m.2. 860 evo 1tb, WC Red 10tb.

Gonna try another version of K-lite, before I give up. I dont know how to fix dll manually.

Il update post when Ive tried another version.

Margol

Posts : 4
Join date : 2018-11-08

View user profile

Back to top Go down

Re: V.14.5.5 Mega explorer crash - avcodec-ics-58.dll

Post by Admin on Thu Nov 08, 2018 3:52 pm

That is part of the thumbnail plugin. You can disable thumbnails through:
Codec Tweak Tool > Thumbnails

It must be a specific (set of) file that triggers this crash. It would be very helpful if you could provide details of one of those files. If I can download the same files, then I can send it to the developer to get this problem fixed.

Admin
Admin

Posts : 4224
Join date : 2011-06-17

View user profile http://codecs.forumotion.net

Back to top Go down

Re: V.14.5.5 Mega explorer crash - avcodec-ics-58.dll

Post by Margol on Thu Nov 08, 2018 11:10 pm

Almost ruined my pc there a second, luckily I had codec tweak open so I could change the settings. Made 1 and 1 shortcut to desktop.



*=stars same name as shortcut

Heres the details from media info:
General
Unique ID                   : 112819339775618610377533983502435613332 (0x54E036E807805CA9E3D80A72501BFA94)
Complete name               : D:\Torrent\2160p\*************** 4K.mkv
Format                      : Matroska
Format version              : Version 4
File size                   : 10.2 GiB
Duration                    : 2 h 3 min
Overall bit rate mode       : Variable
Overall bit rate            : 11.8 Mb/s
Movie name                  : ************** 4K HDR 10 Bits
Encoded date                : UTC 2018-03-10 01:53:30
Writing application         : mkvmerge v21.0.0 ('Tardigrades Will Inherit The Earth') 64-bit
Writing library             : libebml v1.3.5 + libmatroska v1.4.8

Video
ID                          : 1
Format                      : HEVC
Format/Info                 : High Efficiency Video Coding
Commercial name             : HDR10
Format profile              : Main 10@L5.1@High
Codec ID                    : V_MPEGH/ISO/HEVC
Duration                    : 2 h 3 min
Bit rate                    : 9 599 kb/s
Width                       : 3 840 pixels
Height                      : 2 076 pixels
Display aspect ratio        : 1.85:1
Frame rate mode             : Constant
Frame rate                  : 23.976 (24000/1001) FPS
Color space                 : YUV
Chroma subsampling          : 4:2:0 (Type 2)
Bit depth                   : 10 bits
Bits/(Pixel*Frame)          : 0.050
Stream size                 : 8.27 GiB (81%)
Title                       : HEVC x265 10bit Video / 9600 kbps / 2160p / 23.976 fps / Main 10 Profile 5
Writing library             : x265 2.5:[Windows][GCC 5.3.1][64 bit] 10bit
Encoding settings           : cpuid=1173503 / frame-threads=4 / numa-pools=16 / wpp / no-pmode / no-pme / no-psnr / no-ssim / log-level=2 / input-csp=1 / input-res=3840x2076 / interlace=0 / total-frames=0 / level-idc=51 / high-tier=1 / uhd-bd=0 / ref=3 / no-allow-non-conformance / repeat-headers / annexb / no-aud / no-hrd / info / hash=0 / no-temporal-layers / open-gop / min-keyint=12 / keyint=120 / bframes=4 / b-adapt=0 / b-pyramid / bframe-bias=0 / rc-lookahead=15 / lookahead-slices=8 / scenecut=40 / no-intra-refresh / ctu=64 / min-cu-size=8 / no-rect / no-amp / max-tu-size=32 / tu-inter-depth=1 / tu-intra-depth=1 / limit-tu=0 / rdoq-level=2 / dynamic-rd=0.00 / no-ssim-rd / signhide / no-tskip / nr-intra=0 / nr-inter=0 / no-constrained-intra / no-strong-intra-smoothing / max-merge=2 / limit-refs=3 / no-limit-modes / me=1 / subme=2 / merange=57 / temporal-mvp / weightp / no-weightb / no-analyze-src-pics / deblock=-1:-1 / no-sao / no-sao-non-deblock / rd=2 / no-early-skip / rskip / fast-intra / no-tskip-fast / no-cu-lossless / no-b-intra / rdpenalty=0 / psy-rd=1.00 / psy-rdoq=1.00 / no-rd-refine / analysis-reuse-mode=0 / no-lossless / cbqpoffs=0 / crqpoffs=0 / rc=crf / crf=19.0 / qcomp=0.60 / qpstep=4 / stats-write=0 / stats-read=0 / vbv-maxrate=72000 / vbv-bufsize=54000 / vbv-init=0.9 / crf-max=0.0 / crf-min=0.0 / ipratio=1.40 / pbratio=1.30 / aq-mode=3 / aq-strength=1.00 / cutree / zone-count=0 / no-strict-cbr / qg-size=32 / no-rc-grain / qpmax=69 / qpmin=0 / no-const-vbv / sar=1 / overscan=0 / videoformat=5 / range=0 / colorprim=9 / transfer=16 / colormatrix=9 / chromaloc=1 / chromaloc-top=2 / chromaloc-bottom=2 / display-window=0 / master-display=G(13250,34500)B(7500,3000)R(34000,16000)WP(15635,16450)L(10000000,50) / max-cll=0,0 / min-luma=0 / max-luma=1023 / log2-max-poc-lsb=8 / vui-timing-info / vui-hrd-info / slices=1 / opt-qp-pps / opt-ref-list-length-pps / no-multi-pass-opt-rps / scenecut-bias=0.05 / no-opt-cu-delta-qp / no-aq-motion / hdr / hdr-opt / no-dhdr10-opt / analysis-reuse-level=5 / scale-factor=0 / refine-intra=0 / refine-inter=0 / refine-mv=0 / no-limit-sao / ctu-info=0
Language                    : English
Default                     : Yes
Forced                      : No
Color range                 : Limited
Color primaries             : BT.2020
Transfer characteristics    : PQ
Matrix coefficients         : BT.2020 non-constant
Mastering display color pri : Display P3
Mastering display luminance : min: 0.0050 cd/m2, max: 1000 cd/m2

Audio #1
ID                          : 2
Format                      : AC-3
Format/Info                 : Audio Coding 3
Commercial name             : Dolby Digital
Codec ID                    : A_AC3
Duration                    : 2 h 3 min
Bit rate mode               : Constant
Bit rate                    : 448 kb/s
Channel(s)                  : 6 channels
Channel layout              : L R C LFE Ls Rs
Sampling rate               : 48.0 kHz
Frame rate                  : 31.250 FPS (1536 SPF)
Bit depth                   : 16 bits
Compression mode            : Lossy
Delay relative to video     : -42 ms
Stream size                 : 395 MiB (4%)
Title                       : Español Latino Dolby Digital 5.1
Language                    : Spanish
Service kind                : Complete Main
Default                     : Yes
Forced                      : No

Audio #2
ID                          : 3
Format                      : FLAC
Format/Info                 : Free Lossless Audio Codec
Codec ID                    : A_FLAC
Duration                    : 2 h 3 min
Bit rate mode               : Variable
Bit rate                    : 1 300 kb/s
Channel(s)                  : 6 channels
Channel layout              : L R C LFE Ls Rs
Sampling rate               : 48.0 kHz
Frame rate                  : 11.719 FPS (4096 SPF)
Bit depth                   : 16 bits
Compression mode            : Lossless
Delay relative to video     : -42 ms
Stream size                 : 1.12 GiB (11%)
Title                       : English FLAC 5.1
Writing library             : libFLAC 1.3.2 (UTC 2017-01-01)
Language                    : English
Default                     : No
Forced                      : No

Audio #3
ID                          : 4
Format                      : AC-3
Format/Info                 : Audio Coding 3
Commercial name             : Dolby Digital
Codec ID                    : A_AC3
Duration                    : 2 h 3 min
Bit rate mode               : Constant
Bit rate                    : 448 kb/s
Channel(s)                  : 6 channels
Channel layout              : L R C LFE Ls Rs
Sampling rate               : 48.0 kHz
Frame rate                  : 31.250 FPS (1536 SPF)
Bit depth                   : 16 bits
Compression mode            : Lossy
Delay relative to video     : -42 ms
Stream size                 : 395 MiB (4%)
Title                       : English Dolby Digital 5.1
Language                    : English
Service kind                : Complete Main
Default                     : No
Forced                      : No

Text #1
ID                          : 5
Format                      : UTF-8
Codec ID                    : S_TEXT/UTF8
Codec ID/Info               : UTF-8 Plain Text
Duration                    : 1 h 58 min
Bit rate                    : 4 b/s
Count of elements           : 195
Stream size                 : 3.66 KiB (0%)
Title                       : Español Latino Forzado
Language                    : Spanish
Default                     : Yes
Forced                      : Yes

Text #2
ID                          : 6
Format                      : UTF-8
Codec ID                    : S_TEXT/UTF8
Codec ID/Info               : UTF-8 Plain Text
Duration                    : 2 h 1 min
Bit rate                    : 44 b/s
Count of elements           : 1373
Stream size                 : 39.4 KiB (0%)
Title                       : Español Latino
Language                    : Spanish
Default                     : No
Forced                      : No

Text #3
ID                          : 7
Format                      : UTF-8
Codec ID                    : S_TEXT/UTF8
Codec ID/Info               : UTF-8 Plain Text
Duration                    : 1 h 47 min
Bit rate                    : 3 b/s
Count of elements           : 169
Stream size                 : 2.50 KiB (0%)
Title                       : English Forced
Language                    : English
Default                     : No
Forced                      : Yes

Text #4
ID                          : 8
Format                      : UTF-8
Codec ID                    : S_TEXT/UTF8
Codec ID/Info               : UTF-8 Plain Text
Duration                    : 1 h 56 min
Bit rate                    : 43 b/s
Count of elements           : 1306
Stream size                 : 36.8 KiB (0%)
Title                       : English
Language                    : English
Default                     : No
Forced                      : No

Text #5
ID                          : 9
Format                      : PGS
Muxing mode                 : zlib
Codec ID                    : S_HDMV/PGS
Codec ID/Info               : Picture based subtitle format used on BDs/HD-DVDs
Duration                    : 1 h 58 min
Bit rate                    : 1 507 b/s
Count of elements           : 388
Stream size                 : 1.28 MiB (0%)
Title                       : Español Latino Forzado BD SUP
Language                    : Spanish
Default                     : No
Forced                      : Yes

Text #6
ID                          : 10
Format                      : PGS
Muxing mode                 : zlib
Codec ID                    : S_HDMV/PGS
Codec ID/Info               : Picture based subtitle format used on BDs/HD-DVDs
Duration                    : 2 h 1 min
Bit rate                    : 15.8 kb/s
Count of elements           : 2759
Stream size                 : 13.7 MiB (0%)
Title                       : Español Latino BD SUP
Language                    : Spanish
Default                     : No
Forced                      : No

Text #7
ID                          : 11
Format                      : PGS
Muxing mode                 : zlib
Codec ID                    : S_HDMV/PGS
Codec ID/Info               : Picture based subtitle format used on BDs/HD-DVDs
Duration                    : 1 h 47 min
Bit rate                    : 1 229 b/s
Count of elements           : 338
Stream size                 : 968 KiB (0%)
Title                       : English Forced BD SUP
Language                    : English
Default                     : No
Forced                      : Yes

Text #8
ID                          : 12
Format                      : PGS
Muxing mode                 : zlib
Codec ID                    : S_HDMV/PGS
Codec ID/Info               : Picture based subtitle format used on BDs/HD-DVDs
Duration                    : 2 h 2 min
Bit rate                    : 21.7 kb/s
Count of elements           : 3856
Stream size                 : 19.1 MiB (0%)
Title                       : English BD SUP
Language                    : English
Default                     : No
Forced                      : No

Text #9
ID                          : 13
Format                      : PGS
Muxing mode                 : zlib
Codec ID                    : S_HDMV/PGS
Codec ID/Info               : Picture based subtitle format used on BDs/HD-DVDs
Duration                    : 1 h 58 min
Bit rate                    : 1 507 b/s
Count of elements           : 388
Stream size                 : 1.28 MiB (0%)
Title                       : Español Latino Forzado UHD BD SUP
Language                    : Spanish
Default                     : No
Forced                      : Yes

Text #10
ID                          : 14
Format                      : PGS
Muxing mode                 : zlib
Codec ID                    : S_HDMV/PGS
Codec ID/Info               : Picture based subtitle format used on BDs/HD-DVDs
Duration                    : 2 h 1 min
Bit rate                    : 15.8 kb/s
Count of elements           : 2759
Stream size                 : 13.7 MiB (0%)
Title                       : Español Latino UHD BD SUP
Language                    : Spanish
Default                     : No
Forced                      : No

Text #11
ID                          : 15
Format                      : PGS
Muxing mode                 : zlib
Codec ID                    : S_HDMV/PGS
Codec ID/Info               : Picture based subtitle format used on BDs/HD-DVDs
Duration                    : 1 h 47 min
Bit rate                    : 1 229 b/s
Count of elements           : 338
Stream size                 : 968 KiB (0%)
Title                       : English Forced UHD BD SUP
Language                    : English
Default                     : No
Forced                      : Yes

Text #12
ID                          : 16
Format                      : PGS
Muxing mode                 : zlib
Codec ID                    : S_HDMV/PGS
Codec ID/Info               : Picture based subtitle format used on BDs/HD-DVDs
Duration                    : 2 h 2 min
Bit rate                    : 21.7 kb/s
Count of elements           : 3856
Stream size                 : 19.1 MiB (0%)
Title                       : English UHD BD SUP
Language                    : English
Default                     : No
Forced                      : No

Menu
00:00:00.000                : es:1
00:06:24.509                : es:2
00:12:54.816                : es:3
00:18:33.028                : es:4
00:23:45.632                : es:5
00:29:39.694                : es:6
00:35:29.878                : es:7
00:39:30.584                : es:8
00:42:42.484                : es:9
00:48:34.086                : es:10
00:52:26.985                : es:11
00:57:30.240                : es:12
01:01:52.585                : es:13
01:07:35.595                : es:14
01:12:13.545                : es:15
01:17:50.841                : es:16
01:21:17.172                : es:17
01:26:05.960                : es:18
01:32:48.529                : es:19
01:37:18.795                : es:20
01:43:24.164                : es:21
01:46:06.660                : es:22
01:50:31.710                : es:23
01:58:34.900                : es:24

Margol

Posts : 4
Join date : 2018-11-08

View user profile

Back to top Go down

Re: V.14.5.5 Mega explorer crash - avcodec-ics-58.dll

Post by Admin on Fri Nov 09, 2018 6:05 pm

I have downloaded that file and I don't get any crash here. Playback and thumbnail both work ok.

As a test you can disable thumbnails for everything, except for an uncommon extension for which you don't have any files, for example .mxf. Then you can check individual files by renaming them to .mxf (temporarily).

Admin
Admin

Posts : 4224
Join date : 2011-06-17

View user profile http://codecs.forumotion.net

Back to top Go down

Re: V.14.5.5 Mega explorer crash - avcodec-ics-58.dll

Post by Margol on Fri Nov 09, 2018 7:40 pm

.mxf doesn't trigger any respons on file above. Havent tried other .mkv, need more time.

Even changing icon from WMP icon; as post above; to MPC, with only "mkv" enabled thumbnail, repeatably shuts down explorer.exe.

Margol

Posts : 4
Join date : 2018-11-08

View user profile

Back to top Go down

Re: V.14.5.5 Mega explorer crash - avcodec-ics-58.dll

Post by Margol on Fri Nov 09, 2018 7:53 pm

Il add two more points;

Changing to .mvk with file manager open, doesn't crash explorer.

opening up file explorer to quick access crash explorer on opening.
-------------------------------------------------------------
Changing to .mvk with shortcut on desktop crash explorer. With the repeated crash and restart, etc. etc.

Copying a shortcut to desktop crash explorer so fast it doesnt even adhere to desktop.

Margol

Posts : 4
Join date : 2018-11-08

View user profile

Back to top Go down

Re: V.14.5.5 Mega explorer crash - avcodec-ics-58.dll

Post by Admin on Sat Nov 10, 2018 10:51 pm

Do you know how to use the Windows Registry? If so, import this registry key:
Code:
Windows Registry Editor Version 5.00

[HKEY_CURRENT_USER\Software\Icaros]
"DebugMode"=dword:00000001
Then Icaros should create a minidump when it crashes. With that the developer can find the place in the code when things go wrong.

Enabling it only for .mxf and renaming more files to .mxf as a test is the best way to find the faulty file. Perhaps you have a folder with partial downloads? My torrent app uses a different file extension for partial download, but some apps might now do that.

Admin
Admin

Posts : 4224
Join date : 2011-06-17

View user profile http://codecs.forumotion.net

Back to top Go down

Re: V.14.5.5 Mega explorer crash - avcodec-ics-58.dll

Post by Sponsored content


Sponsored content


Back to top Go down

Back to top


 
Permissions in this forum:
You cannot reply to topics in this forum