DV too wide

View previous topic View next topic Go down

DV too wide

Post by chris j on Wed Jul 19, 2017 3:03 pm

Hi, I've installed latest K Lite codecs to watch home videos .avi with DV codec on Picasa, some of these videos were shot in what was called wide mode on a panasonic DV cam, when I watch them in VLC or in Vegas (i.e. without Klite codecs) they're shown at the right size, but in Picasa they're too wide. Any idea ?
Thanks

chris j

Posts : 3
Join date : 2017-07-19

View user profile

Back to top Go down

Re: DV too wide

Post by Admin on Wed Jul 19, 2017 10:42 pm

Does MPC-HC and GraphStudioNext display it correctly?

Can you copy MediaInfo details for the file here?

Admin
Admin

Posts : 3737
Join date : 2011-06-17

View user profile http://codecs.forumotion.net

Back to top Go down

Re: DV too wide

Post by chris j on Thu Jul 20, 2017 3:45 pm

Playing OK in MPC-HC, too narrow in GraphStudioNext,

MediaInfo :

General
Format : AVI
Format/Info : Audio Video Interleave
Commercial name : DV
File size : 220 MiB
Duration : 1 min 0 s
Overall bit rate mode : Constant
Overall bit rate : 30.4 Mb/s
Recorded date : 2009-05-06 16:20:15.000
TAPE : Little Nature
TCOD : 4262400000
TCDO : 4868800000
VMAJ : 4
VMIN : 0
STAT : 1516 0 3.434077 1
DTIM : 30002790 2311244160

Video
ID : 0
Format : DV
Codec ID : dvsd
Codec ID/Hint : Sony
Duration : 1 min 0 s
Bit rate mode : Constant
Bit rate : 24.4 Mb/s
Encoded bit rate : 28.8 Mb/s
Width : 720 pixels
Height : 576 pixels
Display aspect ratio : 5:4
Frame rate mode : Constant
Frame rate : 25.000 FPS
Standard : PAL
Color space : YUV
Chroma subsampling : 4:2:0
Bit depth : 8 bits
Scan type : Interlaced
Scan order : Bottom Field First
Compression mode : Lossy
Bits/(Pixel*Frame) : 2.357
Time code of first frame : 00:07:06:06
Time code source : Subcode time code
Stream size : 208 MiB (95%)

Audio
ID : 1
Format : PCM
Format settings, Endianness : Little
Format settings, Sign : Signed
Codec ID : 1
Duration : 1 min 0 s
Bit rate mode : Constant
Bit rate : 1 536 kb/s
Channel(s) : 2 channels
Sampling rate : 48.0 kHz
Bit depth : 16 bits
Stream size : 11.1 MiB (5%)
Alignment : Aligned on interleaves
Interleave, duration : 279 ms (6.99 video frames)
Interleave, preload duratio : 280 ms


chris j

Posts : 3
Join date : 2017-07-19

View user profile

Back to top Go down

Re: DV too wide

Post by Admin on Thu Jul 20, 2017 3:54 pm

This may solve it:
Codec Tweak Tool > Preferred splitters > Select LAV for .avi

Admin
Admin

Posts : 3737
Join date : 2011-06-17

View user profile http://codecs.forumotion.net

Back to top Go down

Re: DV too wide

Post by chris j on Thu Jul 20, 2017 4:13 pm

It did indeed, thank you so much Mr Admin ! Smile

chris j

Posts : 3
Join date : 2017-07-19

View user profile

Back to top Go down

Re: DV too wide

Post by Sponsored content


Sponsored content


Back to top Go down

View previous topic View next topic Back to top


 
Permissions in this forum:
You cannot reply to topics in this forum