YouTube all videoclips sounds like a robot voices, some mp4 files also

View previous topic View next topic Go down

YouTube all videoclips sounds like a robot voices, some mp4 files also

Post by vlado1972 on Mon Apr 03, 2017 3:58 am

On YouTube all videoclips sounds like a robot voice, some mp4 files also. Used 12.6.1 everithing was fine. Then I think two factors made this situation.
First I tested different video editors. Second YouTube said to upgrade codecs to 13.0.0. After I don't understand what I have voices like a robot navigator
in "Star Wars".  Question

Windows 7 x86
K-Lite codec pack 13.0.0 Standard
I have already tried to recover with recover point to 12.6.1 without success. Onece I have already tried to erase MyFree Codec folder and erase in regedit 2 branch with this folder with HAALLI SPLITER and it was successful, then I install 13.0.0 Full or Mega ver and situation with robot voices repeated. And now nothing helps.

Thats from MediaInfo info from file with the same problem as robot voice ("me-mememem-me-me"):

[quote ]
Format                      : MPEG-4
Format profile              : Base Media / Version 2
Codec ID                    : mp42 (isom/iso2/avc1/mp41/mp42/3gp5)
File size                   : 128 MiB
Duration                    : 23 min 39 s
Overall bit rate mode       : Variable
Overall bit rate            : 758 kb/s
Encoded date                : UTC 1970-01-01 00:00:00
Tagged date                 : UTC 1970-01-01 00:00:00
Writing application         : Lavf52.31.0

Video
ID                          : 201
Format                      : AVC
Format/Info                 : Advanced Video Codec
Format profile              : Main@L3
Format settings, CABAC      : Yes
Format settings, ReFrames   : 1 frame
Codec ID                    : avc1
Codec ID/Info               : Advanced Video Coding
Duration                    : 23 min 39 s
Bit rate                    : 603 kb/s
Width                       : 640 pixels
Height                      : 360 pixels
Display aspect ratio        : 16:9
Frame rate mode             : Constant
Frame rate                  : 24.000 FPS
Color space                 : YUV
Chroma subsampling          : 4:2:0
Bit depth                   : 8 bits
Scan type                   : Progressive
Bits/(Pixel*Frame)          : 0.109
Stream size                 : 102 MiB (80%)
Encoded date                : UTC 1970-01-01 00:00:00
Tagged date                 : UTC 2011-12-12 04:04:32

Audio
ID                          : 101
Format                      : AAC
Format/Info                 : Advanced Audio Codec
Format profile              : LC
Codec ID                    : 40
Duration                    : 23 min 39 s
Bit rate mode               : Variable
Bit rate                    : 119 kb/s
Channel(s)                  : 2 channels
Channel positions           : Front: L R
Sampling rate               : 44.1 kHz
Frame rate                  : 43.066 FPS (1024 spf)
Compression mode            : Lossy
Stream size                 : 20.2 MiB (16%)
Encoded date                : UTC 1970-01-01 00:00:00
Tagged date                 : UTC 2011-12-12 04:04:32

Other #1
ID                          : 2
Type                        : Object description
Format                      : System
Codec ID                    : 1
Duration                    : 1 s 0 ms
Encoded date                : UTC 2011-12-12 04:04:30
Tagged date                 : UTC 2011-12-12 04:04:32

Other #2
ID                          : 1
Type                        : Scene description
Format                      : System Core
Codec ID                    : 2
Duration                    : 1 s 0 ms
Encoded date                : UTC 2011-12-12 04:04:30
Tagged date                 : UTC 2011-12-12 04:04:32

Other #3
ID                          : 65736
Type                        : Hint
Format                      : RTP
Codec ID                    : rtp
Duration                    : 23 min 39 s
Encoded date                : UTC 2011-12-12 04:04:30
Tagged date                 : UTC 2011-12-12 04:04:32

Other #4
ID                          : 65636
Type                        : Hint
Format                      : RTP
Codec ID                    : rtp
Duration                    : 23 min 39 s
Encoded date                : UTC 2011-12-12 04:04:31
Tagged date                 : UTC 2011-12-12 04:04:32
Bit rate mode               : VBR
[/quote ]

[quote ]
Codec Tweak Tool | Log file | Generated at 2017-04-03 07:52:57

#####  System Information  #####

OS:           Windows 7 Ultimate Service Pack 1 (6.01.7601)
DirectX:      9.0c + 10 + 10.1 + 11
CPU name:     AMD Phenom(tm) II N830 Triple-Core Processor
CPU speed:    2094 MHz (3t)
Memory:       3328 MB
Screen size:  1366x768 (32bits) (60Hz)
Video card:   <unknown>
Video driver: <unknown>
Audio device: Устройство с поддержкой High Definition Audio
Audio driver: HdAudio.sys (Version 6.1.7601.17514) (11-19-2010)

#####  K-Lite Codec Pack  #####

KLCP version: 13.0.0
KLCP type:    standard

Speaker conf: 2.0

MPC renderer: EVR CP
MPC subs:     ISR

#####  Decoder Settings #####

LAV Video:
H264=1 HEVC=1 VP9=1 VC1=1 MPEG2=1 MPEG4=1 WMV3=0

LAV Audio:
MP3=1 AAC=1 Vorbis=1 AC3=1 DTS=1 LPCM=1 WMA=0


#####  DirectShow Filters (32-bit)  #####

Description:  DivX Decoder Filter
File name:    c:\windows\system32\divxdec.ax
CLSID:        {78766964-0000-0010-8000-00AA00389B71} (CLSID_DivXDeux)
Merit:        00800000 = MERIT_PREFERRED

Description:  Nero Digital Audio Decoder
File name:    c:\program files\common files\ahead\dsfilter\neaudio.ax
CLSID:        {138130AF-A79B-45D5-B4AA-87697457BA87}
Merit:        00600000 = MERIT_NORMAL

Description:  XviD MPEG-4 Video Decoder
File name:    c:\windows\system32\xvid.ax
CLSID:        {64697678-0000-0010-8000-00AA00389B71}
Merit:        00800000 = MERIT_PREFERRED

Description:  DivX Decoder Filter
File name:    c:\windows\system32\divxdec.ax
CLSID:        {78766964-0000-0010-8000-00AA00389B71}
Merit:        00800000 = MERIT_PREFERRED

Description:  LAME Audio Encoder
File name:    c:\windows\system32\lame.ax
CLSID:        {B8D27088-FF5F-4B7C-98DC-0E91A1696286}
Merit:        00100000 = MERIT_SW_COMPRESSOR

Description:  Nero Video Decoder
File name:    c:\program files\common files\ahead\dsfilter\nevideo.ax
CLSID:        {C0BA9CF8-96E0-4C34-B5DE-E92C3FC05ED6}
Merit:        00600000 = MERIT_NORMAL

Description:  Nero DVD Decoder
File name:    c:\program files\common files\ahead\dsfilter\nevideo.ax
CLSID:        {DCD6EADC-EE69-47DD-B934-95573296039C}
Merit:        00600000 = MERIT_NORMAL

Description:  NeroDigital Parser
File name:    c:\program files\common files\ahead\dsfilter\ndparser.ax
CLSID:        {E206E4DE-A7EE-4A62-B3E9-4FBC8FE84C73}
Merit:        00600000 = MERIT_NORMAL

(A total of 106 filters, 8 shown, 98 hidden)

#####  ICM Class Manager (32-bit)  #####

(A total of 2 filters, 0 shown, 2 hidden)

#####  Default source filters (32-bit)  #####

.h264   {D4DA6077-2239-4C9E-AE16-C78DD9F35631}  H264 File Source
.nd     {E206E4DE-A7EE-4A62-B3E9-4FBC8FE84C73}  NeroDigital Parser

(A total of 57 default source filters, 2 shown, 55 hidden)

#####  ACM and VFW Codecs (32-bit)  #####

Description:  XviD MPEG-4 Video Codec
ID:           vidc.XVID
File name:    C:\Windows\system32\xvidvfw.dll

Description:  Voxware Compression Toolkit
ID:           msacm.voxacm160
File name:    C:\Windows\system32\vct3216.acm

Description:  Sharp G.726 Audio Decoder
ID:           msacm.scg726
File name:    C:\Windows\system32\scg726.acm

Description:  alf2cd.acm
ID:           msacm.alf2cd
File name:    C:\Windows\system32\alf2cd.acm

Description:  LAME Audio Encoder
ID:           msacm.lame
File name:    C:\Windows\system32\lame.ax

Description:  mcdvd_32.dll
ID:           vidc.dvsd
File name:    C:\Windows\system32\mcdvd_32.dll

Description:  MS MPEG-4 v1,2,3 driver 4.1.0.3927
ID:           vidc.mpg4
File name:    C:\Windows\system32\mpg4c32.dll

Description:  MS MPEG-4 v1,2,3 driver 4.1.0.3927
ID:           vidc.mp42
File name:    C:\Windows\system32\mpg4c32.dll

Description:  MS MPEG-4 v1,2,3 driver 4.1.0.3927
ID:           vidc.mp43
File name:    C:\Windows\system32\mpg4c32.dll

Description:  DivX 5.0.5 Codec
ID:           vidc.DIVX
File name:    C:\Windows\system32\divx.dll

Description:  Lagarith lossless codec [LAGS]
ID:           vidc.LAGS
File name:    C:\Windows\system32\lagarith.dll

(A total of 25 codecs, 11 shown, 14 hidden)
[/quote ]

vlado1972

Posts : 5
Join date : 2017-04-02

View user profile

Back to top Go down

Re: YouTube all videoclips sounds like a robot voices, some mp4 files also

Post by Admin on Mon Apr 03, 2017 2:05 pm

First I tested different video editors.
Is this problem happening for videos that you are creating yourself, or for any video on YouTube?
Second YouTube said to upgrade codecs to 13.0.0
YouTube does not say such things? Or did you mean someone recommended that in a comment?

Which browser are you using? I ask because the most popular ones should not actually use anything from the codec pack. Chrome uses its own internal codecs. Firefox and Internet Explorer use the audio and video decoders from Microsoft.

My first recommendation would be to update to the latest version of the Realtek audio driver:
http://filehippo.com/download_realtek_high_definition_audio_vista/

Admin
Admin

Posts : 3625
Join date : 2011-06-17

View user profile http://codecs.forumotion.net

Back to top Go down

Re: YouTube all videoclips sounds like a robot voices, some mp4 files also

Post by vlado1972 on Mon Apr 03, 2017 6:09 pm

I have updated to the latest version of the Realtek audio driver:
http://filehippo.com/download_realtek_high_definition_audio_vista/

YouTube is big. I have this problem for example:
https://www.youtube.com/watch?v=FanQsvBvXG4
https://www.youtube.com/watch?v=pC4P3W2AEfE&feature=youtu.be
In my videos on YouTube I have no problems.

YouTube have internal studio in every chanel for owner and internal video editor. To use this feature I need to use 13.0.0

I have the same problems in Chrome, Opera and Internet Explorer

Once more on my Notebook HDD not all .mp4 files but some of them for example:
Thats from MediaInfo info from file with the same problem as robot voice ("me-mememem-me-me"):

File Format 16:9

[quote ]
General
Complete name               : E:\krasivaya.mp4
Format                      : MPEG-4
Format profile              : Base Media / Version 2
Codec ID                    : mp42 (isom/iso2/avc1/mp41/mp42/3gp5)
File size                   : 128 MiB
Duration                    : 23 min 39 s
Overall bit rate mode       : Variable
Overall bit rate            : 758 kb/s
Encoded date                : UTC 1970-01-01 00:00:00
Tagged date                 : UTC 1970-01-01 00:00:00
Writing application         : Lavf52.31.0

Video
ID                          : 201
Format                      : AVC
Format/Info                 : Advanced Video Codec
Format profile              : Main@L3
Format settings, CABAC      : Yes
Format settings, ReFrames   : 1 frame
Codec ID                    : avc1
Codec ID/Info               : Advanced Video Coding
Duration                    : 23 min 39 s
Bit rate                    : 603 kb/s
Width                       : 640 pixels
Height                      : 360 pixels
Display aspect ratio        : 16:9
Frame rate mode             : Constant
Frame rate                  : 24.000 FPS
Color space                 : YUV
Chroma subsampling          : 4:2:0
Bit depth                   : 8 bits
Scan type                   : Progressive
Bits/(Pixel*Frame)          : 0.109
Stream size                 : 102 MiB (80%)
Encoded date                : UTC 1970-01-01 00:00:00
Tagged date                 : UTC 2011-12-12 04:04:32

Audio
ID                          : 101
Format                      : AAC
Format/Info                 : Advanced Audio Codec
Format profile              : LC
Codec ID                    : 40
Duration                    : 23 min 39 s
Bit rate mode               : Variable
Bit rate                    : 119 kb/s
Channel(s)                  : 2 channels
Channel positions           : Front: L R
Sampling rate               : 44.1 kHz
Frame rate                  : 43.066 FPS (1024 spf)
Compression mode            : Lossy
Stream size                 : 20.2 MiB (16%)
Encoded date                : UTC 1970-01-01 00:00:00
Tagged date                 : UTC 2011-12-12 04:04:32

Other #1
ID                          : 2
Type                        : Object description
Format                      : System
Codec ID                    : 1
Duration                    : 1 s 0 ms
Encoded date                : UTC 2011-12-12 04:04:30
Tagged date                 : UTC 2011-12-12 04:04:32

Other #2
ID                          : 1
Type                        : Scene description
Format                      : System Core
Codec ID                    : 2
Duration                    : 1 s 0 ms
Encoded date                : UTC 2011-12-12 04:04:30
Tagged date                 : UTC 2011-12-12 04:04:32

Other #3
ID                          : 65736
Type                        : Hint
Format                      : RTP
Codec ID                    : rtp
Duration                    : 23 min 39 s
Encoded date                : UTC 2011-12-12 04:04:30
Tagged date                 : UTC 2011-12-12 04:04:32

Other #4
ID                          : 65636
Type                        : Hint
Format                      : RTP
Codec ID                    : rtp
Duration                    : 23 min 39 s
Encoded date                : UTC 2011-12-12 04:04:31
Tagged date                 : UTC 2011-12-12 04:04:32
Bit rate mode               : VBR
[/quote ]




This one is fine playing without problems:

File Format 4:3

[quote ]
General
Complete name               : E:\Carla.mp4
Format                      : MPEG-4
Format profile              : Base Media
Codec ID                    : isom (isom/iso2/avc1/mp41)
File size                   : 104 MiB
Duration                    : 24 min 46 s
Overall bit rate mode       : Variable
Overall bit rate            : 585 kb/s
Encoded date                : UTC 1970-01-01 00:00:00
Tagged date                 : UTC 1970-01-01 00:00:00
Writing application         : Lavf52.40.0

Video
ID                          : 1
Format                      : AVC
Format/Info                 : Advanced Video Codec
Format profile              : Baseline@L3
Format settings, CABAC      : No
Format settings, ReFrames   : 1 frame
Codec ID                    : avc1
Codec ID/Info               : Advanced Video Coding
Duration                    : 24 min 46 s
Bit rate                    : 450 kb/s
Width                       : 640 pixels
Height                      : 360 pixels
Display aspect ratio        : 16:9
Frame rate mode             : Constant
Frame rate                  : 25.000 FPS
Color space                 : YUV
Chroma subsampling          : 4:2:0
Bit depth                   : 8 bits
Scan type                   : Progressive
Bits/(Pixel*Frame)          : 0.078
Stream size                 : 80.3 MiB (77%)
Writing library             : x264 core 79
Encoding settings           : cabac=0 / ref=1 / deblock=1:0:0 / analyse=0x1:0x131 / me=tesa / subme=9 / psy=1 / psy_rd=1.0:0.0 / mixed_ref=0 / me_range=24 / chroma_me=1 / trellis=0 / 8x8dct=0 / cqm=0 / deadzone=21,11 / chroma_qp_offset=-2 / threads=24 / nr=0 / decimate=1 / mbaff=0 / constrained_intra=0 / bframes=0 / wpredp=0 / keyint=250 / keyint_min=25 / scenecut=40 / rc_lookahead=40 / rc=cbr / mbtree=1 / bitrate=450 / ratetol=8.9 / qcomp=0.60 / qpmin=10 / qpmax=51 / qpstep=4 / vbv_maxrate=10000 / vbv_bufsize=10000 / ip_ratio=1.41 / aq=1:1.00
Language                    : English
Encoded date                : UTC 1970-01-01 00:00:00
Tagged date                 : UTC 1970-01-01 00:00:00

Audio
ID                          : 2
Format                      : AAC
Format/Info                 : Advanced Audio Codec
Format profile              : LC
Codec ID                    : 40
Duration                    : 24 min 46 s
Bit rate mode               : Variable
Bit rate                    : 128 kb/s
Channel(s)                  : 2 channels
Channel positions           : Front: L R
Sampling rate               : 44.1 kHz
Frame rate                  : 43.066 FPS (1024 spf)
Compression mode            : Lossy
Stream size                 : 22.7 MiB (22%)
Language                    : English
Encoded date                : UTC 1970-01-01 00:00:00
Tagged date                 : UTC 1970-01-01 00:00:00
[/quote ]


Maybe something connected to 16:9 as my notebook LCD?

Sincerely,
Vladimir

vlado1972

Posts : 5
Join date : 2017-04-02

View user profile

Back to top Go down

Re: YouTube all videoclips sounds like a robot voices, some mp4 files also

Post by vlado1972 on Tue Apr 04, 2017 10:35 am

One more information. I'll tried to use another codecs then K-Lite Codecs and have the same situation. Music on Internet plays words don't recognized (me-mememe-me with the rhythm). With the discribed early post, files have the same situation. Don't understand. Then with recovery point came back to K-Lite. Maybe problems with DirectDraw 11 in my Win 7? Please, help me solve this real problem.

Sincerely,
Vladimir

vlado1972

Posts : 5
Join date : 2017-04-02

View user profile

Back to top Go down

Re: YouTube all videoclips sounds like a robot voices, some mp4 files also

Post by Admin on Tue Apr 04, 2017 1:29 pm

It is not a codec problem. It must be something with the sound settings or driver. Video settings should not matter at all for the audio.

You say that the words in the music can't be recognized. Does the music also play at wrong speed?

Try this:
Right-click on the speaker icon in Windows systemtray > Playback devices > Speakers > Properties > Enhancements > Disable all sound effects

Admin
Admin

Posts : 3625
Join date : 2011-06-17

View user profile http://codecs.forumotion.net

Back to top Go down

Re: YouTube all videoclips sounds like a robot voices, some mp4 files also

Post by vlado1972 on Tue Apr 04, 2017 2:52 pm

The music play at right speed from Youtube. Problem only with the voices. But I don't understand about .mp4 files.

vlado1972

Posts : 5
Join date : 2017-04-02

View user profile

Back to top Go down

Re: YouTube all videoclips sounds like a robot voices, some mp4 files also

Post by vlado1972 on Tue Apr 04, 2017 2:56 pm

I disabled all sound effects in Enchancements and have the same situation.

vlado1972

Posts : 5
Join date : 2017-04-02

View user profile

Back to top Go down

Re: YouTube all videoclips sounds like a robot voices, some mp4 files also

Post by Admin on Wed Apr 05, 2017 2:44 pm

Some other things I found that you can try:
- Chrome settings > Advanced > Disable hardware acceleration
- Windows Control Panel > Sounds > Speakers > Properties > Advanced > Change default format to a different value (like 16bit 44100 Hz)
- If you have disabled the page file (virtual memory) in Windows, then re-enable it and let Windows control its size
- Delete Flash temporary files (%appdata%\Adobe\Flash Player and %appdata%\Macromedia\Flash Player)

Admin
Admin

Posts : 3625
Join date : 2011-06-17

View user profile http://codecs.forumotion.net

Back to top Go down

View previous topic View next topic Back to top


 
Permissions in this forum:
You cannot reply to topics in this forum