Error crashing module avutil-lav-55

View previous topic View next topic Go down

Error crashing module avutil-lav-55

Post by ettasse1989 on Sun Jun 05, 2016 10:17 pm

Hello !

I have an error when I play a specific movie : it gaves me this message


ACCESS VIOLATION
Crashing module
c:\Program Files(x86)\K-Lite Codec Pack\Filters\LAV64\avutil-lav-55.dll
try to access memory at address 0x00000060

This is a log of my installed filters :

Codec Tweak Tool | Log file | Generated at 2016-06-05 13:18:18

#####  System Information  #####
OS:           Windows 10 Pro  (10.00.10586) (x64)
DirectX:      9.0c + 10 + 10.1 + 11 + 12
CPU name:     Intel(R) Core(TM) i5-2430M CPU @ 2.40GHz
CPU speed:    2395 MHz
Memory:       2048 MB
Screen size:  1920x1080 (32bits) (59Hz)
Video card 1: Intel(R) HD Graphics 3000
             VendorID: 8086, DeviceID: 0116
Video driver: aticfx64.dll (Version 10.17.10.4229) (11-3-2015)
Video card 2: AMD Radeon HD 7400M Series
             VendorID: 1002, DeviceID: 6760
Video mem:    1024 MB
Video driver: aticfx64.dll (Catalyst 15.11 Beta)
Audio device: IDT High Definition Audio CODEC
             VendorID: 111d, DeviceID: 7605, SubSys: 103c1659
Audio driver: stwrt64.sys (Version 6.10.6418.0) (7-24-2012)

#####  K-Lite Codec Pack  #####
KLCP version: 12.1.7 (base 12.1.5)
KLCP type:    mega
Speaker conf: 2.0
MPC renderer: EVR CP
MPC subs:     ISR
MPC decoder:  h264=1 hevc=1 vc1=1 mpeg2=1 vp9=1

#####  Decoder Settings #####
LAV Video:
H264=1|0 HEVC=1|0 VP9=1|0 VC1=1|0 MPEG2=1|0 MPEG4=1|0 FLV1=1 WMV3=0
LAV Audio:
MP3=1 AAC=1 Vorbis=1 AC3=1 DTS=1 LPCM=1 WMA=0


#####  DirectShow Filters (32-bit)  #####
(A total of 86 filters, 0 shown, 86 hidden)

#####  DirectShow Filters (64-bit)  #####
(A total of 108 filters, 0 shown, 108 hidden)

#####  ICM Class Manager (32-bit)  #####
(A total of 2 filters, 0 shown, 2 hidden)

#####  ICM Class Manager (64-bit)  #####
(A total of 2 filters, 0 shown, 2 hidden)

#####  Default source filters (32-bit)  #####
(A total of 54 default source filters, 0 shown, 54 hidden)

#####  Default source filters (64-bit)  #####
(A total of 16 default source filters, 0 shown, 16 hidden)

#####  ACM and VFW Codecs (32-bit)  #####
(A total of 20 codecs, 0 shown, 20 hidden)

#####  ACM and VFW Codecs (64-bit)  #####
(A total of 18 codecs, 0 shown, 18 hidden)


I don't know why I have this error just with this movie (all my other movie with the same format work fine !).

Thanks in advance for your answer !

ettasse1989

Posts : 5
Join date : 2016-06-05

View user profile

Back to top Go down

Re: Error crashing module avutil-lav-55

Post by Admin on Mon Jun 06, 2016 5:25 am

Can you give the filename of this movie? Then I can download it too and get it fixed.

Admin
Admin

Posts : 2977
Join date : 2011-06-17

View user profile http://codecs.forumotion.net

Back to top Go down

Re: Error crashing module avutil-lav-55

Post by ettasse1989 on Mon Jun 06, 2016 7:03 am

Admin wrote:Can you give the filename of this movie? Then I can download it too and get it fixed.

Yes of course : it's "Bridge of Spies" but I don't remember exactly what was the release name :\

This is the information of my movie :

General
Unique ID                   : 236432430103315219437719744711964180397 (0xB1DF3ACD5BC52EFBAADE38F0B12B3FAD)
Complete name               : D:\Videos\Films\Le Pont des éspions.mkv
Format                      : Matroska
Format version              : Version 4 / Version 2
File size                   : 6.60 GiB
Duration                    : 2h 21mn
Overall bit rate            : 6 689 Kbps
Encoded date                : UTC 2016-03-25 17:03:52
Writing application         : mkvmerge v8.9.0 ('Father Daughter') 64bit
Writing library             : libebml v1.3.3 + libmatroska v1.4.4

Video
ID                          : 1
Format                      : HEVC
Format/Info                 : High Efficiency Video Coding
Format profile              : Main@L4@Main
Codec ID                    : V_MPEGH/ISO/HEVC
Duration                    : 2h 21mn
Bit rate                    : 5 598 Kbps
Width                       : 1 920 pixels
Height                      : 800 pixels
Display aspect ratio        : 2.40:1
Frame rate mode             : Constant
Frame rate                  : 23.976 (24000/1001) fps
Color space                 : YUV
Chroma subsampling          : 4:2:0
Bit depth                   : 8 bits
Bits/(Pixel*Frame)          : 0.152
Stream size                 : 5.53 GiB (84%)
Writing library             : x265 1.8+167-e951ab673b1c:[Windows][GCC 5.2.0][64 bit] 8bit
Encoding settings           : wpp / ctu=64 / min-cu-size=8 / max-tu-size=32 / tu-intra-depth=2 / tu-inter-depth=2 / me=3 / subme=6 / merange=60 / no-rect / no-amp / max-merge=3 / temporal-mvp / no-early-skip / rdpenalty=1 / no-tskip / no-tskip-fast / strong-intra-smoothing / no-lossless / cu-lossless / no-constrained-intra / no-fast-intra / open-gop / no-temporal-layers / interlace=0 / keyint=250 / min-keyint=23 / scenecut=40 / rc-lookahead=120 / lookahead-slices=4 / bframes=8 / bframe-bias=0 / b-adapt=2 / ref=5 / limit-refs=0 / no-limit-modes / weightp / weightb / aq-mode=3 / qg-size=32 / aq-strength=1.65 / cbqpoffs=0 / crqpoffs=0 / rd=4 / psy-rd=0.80 / rdoq-level=2 / psy-rdoq=37.00 / signhide / deblock=-2:-2 / sao / no-sao-non-deblock / b-pyramid / cutree / no-intra-refresh / rc=2 / pass / bitrate=5600 / qcomp=0.60 / qpmin=0 / qpmax=51 / qpstep=4 / cplxblur=20.0 / qblur=0.5 / ipratio=1.40 / pbratio=1.30
Default                     : Yes
Forced                      : No
Color range                 : Limited
Color primaries             : BT.2020
Transfer characteristics    : BT.2020
Matrix coefficients         : BT.2020 constant

Audio #1
ID                          : 2
Format                      : AC-3
Format/Info                 : Audio Coding 3
Mode extension              : CM (complete main)
Format settings, Endianness : Big
Codec ID                    : A_AC3
Duration                    : 2h 21mn
Bit rate mode               : Constant
Bit rate                    : 448 Kbps
Channel(s)                  : 6 channels
Channel positions           : Front: L C R, Side: L R, LFE
Sampling rate               : 48.0 KHz
Frame rate                  : 31.250 fps (1536 spf)
Compression mode            : Lossy
Stream size                 : 453 MiB (7%)
Title                       : TrueFrench AC-3 [448 Kbps]
Language                    : French
Default                     : Yes
Forced                      : No

Audio #2
ID                          : 3
Format                      : AC-3
Format/Info                 : Audio Coding 3
Mode extension              : CM (complete main)
Format settings, Endianness : Big
Codec ID                    : A_AC3
Duration                    : 2h 21mn
Bit rate mode               : Constant
Bit rate                    : 640 Kbps
Channel(s)                  : 6 channels
Channel positions           : Front: L C R, Side: L R, LFE
Sampling rate               : 48.0 KHz
Frame rate                  : 31.250 fps (1536 spf)
Compression mode            : Lossy
Stream size                 : 647 MiB (10%)
Title                       : English AC-3 [640 Kbps]
Language                    : English
Default                     : No
Forced                      : No

Text #1
ID                          : 4
Format                      : UTF-8
Codec ID                    : S_TEXT/UTF8
Codec ID/Info               : UTF-8 Plain Text
Duration                    : 2h 14mn
Bit rate                    : 2 bps
Count of elements           : 59
Stream size                 : 2.09 KiB (0%)
Title                       : FR Forcé
Language                    : French
Default                     : Yes
Forced                      : Yes

Text #2
ID                          : 5
Format                      : UTF-8
Codec ID                    : S_TEXT/UTF8
Codec ID/Info               : UTF-8 Plain Text
Duration                    : 2h 14mn
Bit rate                    : 64 bps
Count of elements           : 1823
Stream size                 : 63.1 KiB (0%)
Title                       : FR Full
Language                    : French
Default                     : No
Forced                      : No

Text #3
ID                          : 6
Format                      : UTF-8
Codec ID                    : S_TEXT/UTF8
Codec ID/Info               : UTF-8 Plain Text
Duration                    : 2h 7mn
Bit rate                    : 65 bps
Count of elements           : 1480
Stream size                 : 61.3 KiB (0%)
Title                       : ENG Full
Language                    : English
Default                     : No
Forced                      : No

Menu
00:00:00.000                : en:Colonel Rudolf Abel
00:10:29.462                : en:James B. Donovan
00:17:46.482                : en:Legal Counsel
00:22:09.828                : en:Francis Gary Powers
00:25:27.901                : en:"Come on, Counselor"
00:31:18.209                : en:Gathering of Evidence
00:37:45.721                : en:Standing Man
00:45:29.268                : en:The Cost of Things
00:52:36.695                : en:A Good Soldier
01:00:39.427                : en:Red-Letter Day
01:07:17.867                : en:Frederic Pryor
01:16:52.399                : en:Negotiations
01:33:55.671                : en:Interrogation
01:45:41.752                : en:Two-For-One
01:56:31.192                : en:Bridge of Spies
02:07:20.549                : en:Homecoming
02:14:18.800                : en:End Credits

The strange part is that this movie run perfectly with VLC but not with MPC HC !!

ettasse1989

Posts : 5
Join date : 2016-06-05

View user profile

Back to top Go down

Re: Error crashing module avutil-lav-55

Post by Admin on Mon Jun 06, 2016 8:41 am

I assume it crashes at the start? If so, you can cut a sample with this tool:
http://files.codecguide.com/mirror/DGSplit.exe
A 20 MB piece should be enough. You can upload it to http://www.sendspace.com or a similar site.

Admin
Admin

Posts : 2977
Join date : 2011-06-17

View user profile http://codecs.forumotion.net

Back to top Go down

Re: Error crashing module avutil-lav-55

Post by ettasse1989 on Tue Jun 07, 2016 6:56 am

Admin wrote:I assume it crashes at the start? If so, you can cut a sample with this tool:
http://files.codecguide.com/mirror/DGSplit.exe
A 20 MB piece should be enough. You can upload it to http://www.sendspace.com or a similar site.

Yes it crashes at the start !

So this is the link for a 20Mb sample of my movie :

sendspace.com 12wlbz

But it's really strange : this sample work perfectly with MPC-HC !
So I decided tu watch the entire movie with VLC to see if there is some truble, but no problem !
And it still not working with MPC-HC !

I really don't understand what happen --'

ettasse1989

Posts : 5
Join date : 2016-06-05

View user profile

Back to top Go down

Re: Error crashing module avutil-lav-55

Post by Admin on Tue Jun 07, 2016 8:59 am

Could you try to figure out which release it was? That would be really helpful. I did a quick search but could not find a French version with similar size.

Since the cut sample works, you may be able to 'fix' the original file by remuxing it with MkvToolNix.

Admin
Admin

Posts : 2977
Join date : 2011-06-17

View user profile http://codecs.forumotion.net

Back to top Go down

Re: Error crashing module avutil-lav-55

Post by ettasse1989 on Wed Jun 08, 2016 3:21 am

Admin wrote:Could you try to figure out which release it was? That would be really helpful. I did a quick search but could not find a French version with similar size.

Since the cut sample works, you may be able to 'fix' the original file by remuxing it with MkvToolNix.

I think the original file was deleted ... I have searched on my regular DL web sites and I didn't find my movie -_-
I can upload it on dropbox but because of my low connection, it will take minimum 35 hours ...

I have remuxed it and the problem is still there. So I think I will forget it !

ettasse1989

Posts : 5
Join date : 2016-06-05

View user profile

Back to top Go down

Re: Error crashing module avutil-lav-55

Post by Admin on Wed Jun 08, 2016 4:31 am

No Problem. If it ever happens again with another file, just come here with the details, and I will have a look at it.

Admin
Admin

Posts : 2977
Join date : 2011-06-17

View user profile http://codecs.forumotion.net

Back to top Go down

Re: Error crashing module avutil-lav-55

Post by Admin on Thu Jun 23, 2016 6:25 am

I have been able to reproduce a similar crash. Problem should be fixed in next version.

Admin
Admin

Posts : 2977
Join date : 2011-06-17

View user profile http://codecs.forumotion.net

Back to top Go down

Re: Error crashing module avutil-lav-55

Post by ettasse1989 on Sat Aug 20, 2016 12:42 am

Admin wrote:I have been able to reproduce a similar crash. Problem should be fixed in next version.

Yes thank you !
It's fixed ! I can now watch the movie without error !
Thank you !

ettasse1989

Posts : 5
Join date : 2016-06-05

View user profile

Back to top Go down

Re: Error crashing module avutil-lav-55

Post by Sponsored content Today at 9:11 pm


Sponsored content


Back to top Go down

View previous topic View next topic Back to top


 
Permissions in this forum:
You cannot reply to topics in this forum