Video mp4 - h264 8bit 119fps run slow

View previous topic View next topic Go down

Video mp4 - h264 8bit 119fps run slow

Post by LAHBAE on Sat May 14, 2016 5:14 pm

(My english isn't good) Hello, i have a problem with this video:

media info

Video
ID                             : 1
Format                         : AVC
Format/Info                    : Advanced Video Codec
Format profile                 : Main@L4.1
Format settings, CABAC         : Yes
Format settings, ReFrames      : 2 frames
Codec ID                       : V_MPEG4/ISO/AVC
Duration                       : 23mn 29s
Bit rate                       : 1 500 Kbps
Width                          : 1 280 pixels
Height                         : 720 pixels
Display aspect ratio           : 16:9
Frame rate mode                : Variable
Frame rate                     : 119.880 fps
Color space                    : YUV
Chroma subsampling             : 4:2:0
Bit depth                      : 8 bits
Scan type                      : Progressive
Bits/(Pixel*Frame)             : 0.014
Stream size                    : 259 MiB (92%)
Writing library                : x264 core 142 r2431
Encoding settings              : cabac=1 / ref=2 / deblock=1:0:0 / analyse=0x1:0x131 / me=hex / subme=7 / psy=1 / psy_rd=1.00:0.00 / mixed_ref=0 / me_range=16 / chroma_me=1 / trellis=1 / 8x8dct=0 / cqm=0 / deadzone=21,11 / fast_pskip=1 / chroma_qp_offset=-2 / threads=18 / lookahead_threads=3 / sliced_threads=0 / nr=0 / decimate=1 / interlaced=0 / bluray_compat=0 / constrained_intra=0 / bframes=3 / b_pyramid=0 / b_adapt=1 / b_bias=0 / direct=3 / weightb=1 / open_gop=0 / weightp=2 / keyint=1190 / keyint_min=119 / scenecut=40 / intra_refresh=0 / rc_lookahead=40 / rc=abr / mbtree=1 / bitrate=1500 / ratetol=1.0 / qcomp=0.60 / qpmin=10 / qpmax=69 / qpstep=4 / vbv_maxrate=24000 / vbv_bufsize=24000 / nal_hrd=none / filler=0 / ip_ratio=1.40 / aq=1:1.00
Default                        : Yes
Forced                         : No

Audio
ID                             : 2
Format                         : AAC
Format/Info                    : Advanced Audio Codec
Format profile                 : LC
Codec ID                       : A_AAC
Duration                       : 23mn 30s
Bit rate                       : 128 Kbps
Channel(s)                     : 2 channels
Channel positions              : Front: L R
Sampling rate                  : 48.0 KHz
Frame rate                     : 46.875 fps (1024 spf)
Compression mode               : Lossy
Delay relative to video        : -21ms
Stream size                    : 21.5 MiB (8%)
Default                        : Yes
Forced                         : No

the video run slow, but when i move the mhc player on the desktop, the video run fast, how can i resolve this problem?.

LAHBAE

Posts : 3
Join date : 2014-03-15

View user profile

Back to top Go down

Re: Video mp4 - h264 8bit 119fps run slow

Post by Admin on Tue May 17, 2016 5:00 am

What is the refreshrate of your screen?
Is this video downloadable somewhere, so I can test it myself?

Admin
Admin

Posts : 2977
Join date : 2011-06-17

View user profile http://codecs.forumotion.net

Back to top Go down

View previous topic View next topic Back to top


 
Permissions in this forum:
You cannot reply to topics in this forum