Problem downloading FLV video with IDM(internet download manager)

View previous topic View next topic Go down

Problem downloading FLV video with IDM(internet download manager)

Post by lexbarrios on Wed Jul 29, 2015 5:54 am

Hi Guys,

The thing is I suscribed to this page www.vivoplay.net and all its videos use this setup "octoshape" (Just trying to give you all info about it"

I use IDM to download videos from it, videos are in streaming format in spite of they're not live feed... well,after the downloading I use MPC-HC player (with Klite upgraded), and it only plays like 7 seconds perfectly. Then I can get only the audio but the video itself turns green like bad signal. Here the video info. What can I do?

eneral
Complete name : C:\Users\informatica\Downloads\Video\Reporte Semanal.FLV
Format : Flash Video
File size : 450 MiB
Duration : 29mn 10s
Overall bit rate : 2 156 Kbps
_level : status
_code : NetStream.Play.Complete
_duration : 0
_bytes : 0

Video
Format : AVC
Format/Info : Advanced Video Codec
Format profile : Main@L2.1
Format settings, CABAC : Yes
Format settings, ReFrames : 2 frames
Codec ID : 7
Duration : 29mn 10s
Bit rate mode : Constant
Bit rate : 236 Kbps
Width : 480 pixels
Height : 270 pixels
Display aspect ratio : 16:9
Frame rate mode : Constant
Frame rate : 29.970 fps
Color space : YUV
Chroma subsampling : 4:2:0
Bit depth : 8 bits
Scan type : Progressive
Bits/(Pixel*Frame) : 0.061
Stream size : 49.2 MiB (11%)

Audio
Format : AAC
Format/Info : Advanced Audio Codec
Format profile : LC
Codec ID : 10
Duration : 29mn 10s
Bit rate : 62.0 Kbps
Channel(s) : 2 channels
Channel positions : Front: L R
Sampling rate : 48.0 KHz
Compression mode : Lossy
Delay relative to video : 3ms
Stream size : 12.9 MiB (3%)



lexbarrios

Posts : 2
Join date : 2015-07-29

View user profile

Back to top Go down

Re: Problem downloading FLV video with IDM(internet download manager)

Post by Admin on Wed Jul 29, 2015 10:23 am

The file appears to be broken. The video stream size is too small compared to the filesize.

You should ask the makers of IDM to test that specific website. Maybe they can fix the downloading to create a valid file.

Admin
Admin

Posts : 2982
Join date : 2011-06-17

View user profile http://codecs.forumotion.net

Back to top Go down

Re: Problem downloading FLV video with IDM(internet download manager)

Post by lexbarrios on Thu Jul 30, 2015 12:05 am

Ohh! Thakns, I thought, changing some codecs, IDK, coverting it in another video format... the web page is paid.. They do know how to do web page, so people can't download its videos. thanks a lot.

lexbarrios

Posts : 2
Join date : 2015-07-29

View user profile

Back to top Go down

Re: Problem downloading FLV video with IDM(internet download manager)

Post by Admin on Thu Jul 30, 2015 1:14 am

Since IDM was able to partially download it, I would assume a full download should be possible too. You probably need to avoid actions like seeking in the video. Don't touch it once it has started and let it finish till the end.

Admin
Admin

Posts : 2982
Join date : 2011-06-17

View user profile http://codecs.forumotion.net

Back to top Go down

Re: Problem downloading FLV video with IDM(internet download manager)

Post by Sponsored content Today at 11:46 am


Sponsored content


Back to top Go down

View previous topic View next topic Back to top


 
Permissions in this forum:
You cannot reply to topics in this forum