Icaros causing Explorer to crash

View previous topic View next topic Go down

Icaros causing Explorer to crash

Post by mertx on Mon Jul 27, 2015 5:00 am

I updated KLCP to the newest version (11.3.0). Now, every time I browse folders with a large number of videos (eg, 100 videos) I was getting a message saying that Icaros has terminated and Windows Explorer needs to restart.

http://i.imgur.com/i1gdJee.png

I decided to "downgrade" KLCP to the older version I had installed before (10.2.5) which works fine for me.
My OS: Windows 7 SP1 x64.

I found another problem, though it's not a big deal. With KLCP 11.3.0, Windows Explorer displays incorrect information about height and wodth of some FLV videos. For example, it reports a resolution of 30464 X 335544320 when the actual value is 1920 x 1080 in the screen below. (Actually, every refresh of the window makes this value change to random values like 1920x32, 32x2240 etc)

http://i.imgur.com/19XBmvT.png

Media Info for the video:

General
Complete name : C:\Users\(user_name)\Desktop\(folder)\name_file.flv
Format : Flash Video
File size : 106 MiB
Duration : 3mn 54s
Overall bit rate : 3 574 Kbps

Video
Format : AVC
Format/Info : Advanced Video Codec
Codec ID : 7
Duration : 3mn 54s
Bit rate : 3 264 Kbps
Width : 1 920 pixels
Height : 1 080 pixels
Display aspect ratio : 16:9
Frame rate mode : Constant
Frame rate : 25.000 fps
Bit depth : 8 bits
Bits/(Pixel*Frame) : 0.063
Stream size : 91.2 MiB (86%)

Audio
Format : MPEG Audio
Format version : Version 1
Format profile : Layer 3
Mode : Joint stereo
Mode extension : MS Stereo
Codec ID : 2
Codec ID/Hint : MP3
Duration : 3mn 54s
Bit rate mode : Constant
Bit rate : 160 Kbps
Channel(s) : 2 channels
Sampling rate : 44.1 KHz
Compression mode : Lossy
Stream size : 4.47 MiB (4%)
Writing library : LAME3.98.2


Again, "downgrading" to version 10.2.5 fix this problem.

mertx

Posts : 6
Join date : 2015-07-25

View user profile

Back to top Go down

Re: Icaros causing Explorer to crash

Post by Admin on Mon Jul 27, 2015 6:20 am

Please send those generated .dmp files to xanashi[at]gmail[dot]com (the developer of Icaros). That allows him to fix the problem.

Can you upload an example FLV that has this problem? You can upload to for example http://www.sendspace.com

Admin
Admin

Posts : 2982
Join date : 2011-06-17

View user profile http://codecs.forumotion.net

Back to top Go down

Re: Icaros causing Explorer to crash

Post by mertx on Mon Jul 27, 2015 10:45 am

A small sample:

sendspace.com rbdlkx

mertx

Posts : 6
Join date : 2015-07-25

View user profile

Back to top Go down

Re: Icaros causing Explorer to crash

Post by Admin on Mon Jul 27, 2015 11:44 pm

Thanks. I can reproduce the problem with the sample file.

Admin
Admin

Posts : 2982
Join date : 2011-06-17

View user profile http://codecs.forumotion.net

Back to top Go down

Re: Icaros causing Explorer to crash

Post by Admin on Tue Jul 28, 2015 3:41 am

The developer of Icaros is going to fix the FLV problem. He hasn't received any dump files yet. If you don't have any around anymore, could you perhaps temporary switch to the new version again to acquire one? That would be very helpful.

Admin
Admin

Posts : 2982
Join date : 2011-06-17

View user profile http://codecs.forumotion.net

Back to top Go down

Re: Icaros causing Explorer to crash

Post by mertx on Tue Jul 28, 2015 4:20 am

Done. I've sent the dump files to Icaros developer.

mertx

Posts : 6
Join date : 2015-07-25

View user profile

Back to top Go down

Re: Icaros causing Explorer to crash

Post by Admin on Tue Jul 28, 2015 6:17 am

Great. There should be a new version of Icaros soon with a couple of bugfixes.

Admin
Admin

Posts : 2982
Join date : 2011-06-17

View user profile http://codecs.forumotion.net

Back to top Go down

Re: Icaros causing Explorer to crash

Post by Sponsored content Today at 11:46 am


Sponsored content


Back to top Go down

View previous topic View next topic Back to top


 
Permissions in this forum:
You cannot reply to topics in this forum