Movie Maker will not play video after K-Lite install

View previous topic View next topic Go down

Movie Maker will not play video after K-Lite install

Post by acos on Wed Jul 08, 2015 7:58 am

When I import videos to movie maker it is black, no video only audio. I saw in your Q & A to fix in to the tools menu of movie maker. There is NO tools menu in movie maker 2012. Please help.

acos

Posts : 5
Join date : 2015-07-08

View user profile

Back to top Go down

Re: Movie Maker will not play video after K-Lite install

Post by Admin on Wed Jul 08, 2015 8:35 am

What kind of files are you importing? You can get details by right-clicking on a file in Explorer and choosing MediaInfo.

Admin
Admin

Posts : 2986
Join date : 2011-06-17

View user profile http://codecs.forumotion.net

Back to top Go down

Re: Movie Maker will not play video after K-Lite install

Post by acos on Wed Jul 08, 2015 8:55 am

I have tried AVI & MGPP. It worked fine before for regular MP4 files, I downloaded the k-lite because the MGPP was not playing sound. It plays sound now and video in Media player, but no video only sound in movie maker.

acos

Posts : 5
Join date : 2015-07-08

View user profile

Back to top Go down

Re: Movie Maker will not play video after K-Lite install

Post by Admin on Wed Jul 08, 2015 9:49 am

AVI files can contain many different video formats. The MediaInfo details will show which kind it contains.
I am not familiar with the MGPP format.

Admin
Admin

Posts : 2986
Join date : 2011-06-17

View user profile http://codecs.forumotion.net

Back to top Go down

Re: Movie Maker will not play video after K-Lite install

Post by acos on Wed Jul 08, 2015 9:52 am

this is for the mp4 one

General
Complete name : E:\VIDEO0016.mp4
Format : MPEG-4
Format profile : 3GPP Media Release 4
Codec ID : 3gp4
File size : 3.57 MiB
Duration : 36s 860ms
Overall bit rate mode : Constant
Overall bit rate : 812 Kbps
Law rating : 0x00000000
Released date : 0
Encoded date : UTC 2010-09-10 21:20:18
Tagged date : UTC 2010-09-10 21:20:18
Classification : 0x00000000

Video
ID : 1
Format : MPEG-4 Visual
Format profile : Simple@L2
Format settings, BVOP : Yes
Format settings, QPel : No
Format settings, GMC : No warppoints
Format settings, Matrix : Default (H.263)
Codec ID : 20
Duration : 36s 671ms
Bit rate mode : Constant
Bit rate : 800 Kbps
Width : 320 pixels
Height : 240 pixels
Display aspect ratio : 4:3
Frame rate mode : Variable
Frame rate : 17.507 fps
Minimum frame rate : 4.149 fps
Maximum frame rate : 200.000 fps
Color space : YUV
Bit depth : 8 bits
Scan type : Progressive
Compression mode : Lossy
Bits/(Pixel*Frame) : 0.595
Stream size : 3.50 MiB (98%)
Language : English
Encoded date : UTC 2010-09-10 21:20:18
Tagged date : UTC 2010-09-10 21:20:18

Audio
ID : 2
Format : AMR
Format/Info : Adaptive Multi-Rate
Format profile : Narrow band
Codec ID : samr
Duration : 36s 860ms
Bit rate mode : Constant
Bit rate : 12.8 Kbps
Channel(s) : 1 channel
Sampling rate : 8 000 Hz
Bit depth : 13 bits
Stream size : 57.6 KiB (2%)
Writing library : pvmm
Language : English
Encoded date : UTC 2010-09-10 21:20:18
Tagged date : UTC 2010-09-10 21:20:18


acos

Posts : 5
Join date : 2015-07-08

View user profile

Back to top Go down

Re: Movie Maker will not play video after K-Lite install

Post by acos on Wed Jul 08, 2015 9:54 am

this one is 3GPP

General
Complete name : E:\VIDEO0016.AVI
Format : MPEG-4
Format profile : 3GPP Media Release 4
Codec ID : 3gp4
File size : 3.57 MiB
Duration : 36s 860ms
Overall bit rate mode : Constant
Overall bit rate : 812 Kbps
Law rating : 0x00000000
Released date : 0
Encoded date : UTC 2010-09-10 21:20:18
Tagged date : UTC 2010-09-10 21:20:18
Classification : 0x00000000

Video
ID : 1
Format : MPEG-4 Visual
Format profile : Simple@L2
Format settings, BVOP : Yes
Format settings, QPel : No
Format settings, GMC : No warppoints
Format settings, Matrix : Default (H.263)
Codec ID : 20
Duration : 36s 671ms
Bit rate mode : Constant
Bit rate : 800 Kbps
Width : 320 pixels
Height : 240 pixels
Display aspect ratio : 4:3
Frame rate mode : Variable
Frame rate : 17.507 fps
Minimum frame rate : 4.149 fps
Maximum frame rate : 200.000 fps
Color space : YUV
Bit depth : 8 bits
Scan type : Progressive
Compression mode : Lossy
Bits/(Pixel*Frame) : 0.595
Stream size : 3.50 MiB (98%)
Language : English
Encoded date : UTC 2010-09-10 21:20:18
Tagged date : UTC 2010-09-10 21:20:18

Audio
ID : 2
Format : AMR
Format/Info : Adaptive Multi-Rate
Format profile : Narrow band
Codec ID : samr
Duration : 36s 860ms
Bit rate mode : Constant
Bit rate : 12.8 Kbps
Channel(s) : 1 channel
Sampling rate : 8 000 Hz
Bit depth : 13 bits
Stream size : 57.6 KiB (2%)
Writing library : pvmm
Language : English
Encoded date : UTC 2010-09-10 21:20:18
Tagged date : UTC 2010-09-10 21:20:18


acos

Posts : 5
Join date : 2015-07-08

View user profile

Back to top Go down

Re: Movie Maker will not play video after K-Lite install

Post by Admin on Wed Jul 08, 2015 9:59 am

You can convert it to normal MP4 with Handbrake.
https://handbrake.fr/

Both files do not have the correct file extension. You should rename both to .3gp

Admin
Admin

Posts : 2986
Join date : 2011-06-17

View user profile http://codecs.forumotion.net

Back to top Go down

Re: Movie Maker will not play video after K-Lite install

Post by acos on Wed Jul 08, 2015 10:11 am

I did that and now the video will play in movie maker, however the whole video (in movie maker) does not have sound again, should i just uninstall the k-lite

acos

Posts : 5
Join date : 2015-07-08

View user profile

Back to top Go down

Re: Movie Maker will not play video after K-Lite install

Post by Admin on Thu Jul 09, 2015 2:24 am

Could you perhaps record a sample video with your camera for me? Upload it to a site like http://www.sendspace.com and copy the download link here.
I can then test the file in Movie Maker and perhaps find a proper solution for you.

Admin
Admin

Posts : 2986
Join date : 2011-06-17

View user profile http://codecs.forumotion.net

Back to top Go down

Re: Movie Maker will not play video after K-Lite install

Post by Sponsored content Today at 10:54 pm


Sponsored content


Back to top Go down

View previous topic View next topic Back to top


 
Permissions in this forum:
You cannot reply to topics in this forum