some of the video playing only sound no picture

Go down

some of the video playing only sound no picture

Post by haicsyc on Sun Jul 05, 2015 4:26 am

Hello,
some of the video playing only sound no picture, and why? Is AVI format. How to set?

haicsyc

Posts : 3
Join date : 2015-07-05

View user profile

Back to top Go down

Re: some of the video playing only sound no picture

Post by Admin on Sun Jul 05, 2015 10:05 pm

Right-click on the video file and select MediaInfo, Copy the information here, so I can see what kind of video the file contains.

Which player are you using?

Admin
Admin

Posts : 4031
Join date : 2011-06-17

View user profile http://codecs.forumotion.net

Back to top Go down

Re: some of the video playing only sound no picture

Post by haicsyc on Tue Jul 07, 2015 3:12 am

General
Complete name : E:\Media\西木@whole1_hd.avi
Format : AVI
Format/Info : Audio Video Interleave
File size : 1.79 GiB
Duration : 1h 2mn
Overall bit rate : 4 139 Kbps
Writing library : This file was made by AviUtl 0.99.

Video
ID : 0
Format : MPEG-4 Visual
Format settings, BVOP : Yes
Format settings, QPel : No
Format settings, GMC : No warppoints
Format settings, Matrix : Default (H.263)
Codec ID : DX50
Codec ID/Hint : DivX 5
Duration : 1h 2mn
Bit rate : 4 000 Kbps
Width : 1 280 pixels
Height : 720 pixels
Display aspect ratio : 16:9
Frame rate : 29.970 fps
Color space : YUV
Chroma subsampling : 4:2:0
Bit depth : 8 bits
Scan type : Progressive
Compression mode : Lossy
Bits/(Pixel*Frame) : 0.145
Stream size : 1.73 GiB (97%)
Writing library : DivX 6.8.3-6.8.4 (UTC 2008-06-07)

Audio
ID : 1
Format : MPEG Audio
Format version : Version 1
Format profile : Layer 3
Mode : Joint stereo
Codec ID : 55
Codec ID/Hint : MP3
Duration : 1h 2mn
Bit rate mode : Constant
Bit rate : 128 Kbps
Channel(s) : 2 channels
Sampling rate : 48.0 KHz
Compression mode : Lossy
Stream size : 56.8 MiB (3%)
Alignment : Aligned on interleaves
Interleave, duration : 34 ms (1.02 video frame)
I use Windows Media Player12.

haicsyc

Posts : 3
Join date : 2015-07-05

View user profile

Back to top Go down

Re: some of the video playing only sound no picture

Post by Admin on Tue Jul 07, 2015 3:39 pm

This should solve the problem:
Codec Tweak Tool > MS Codec Tweaks > Disable Mpeg43 and Mpeg4s decoders
Codec Tweak Tool > Media Foundation > Disable for .avi

Can you test each tweak alone and let me know which one solved it? The default WMP uses the 32-bit codecs. So unless you specifically chose the 64-bit WMP when creating file associations, you only need the disable for 32-bit (if you have a x64 Windows).

Admin
Admin

Posts : 4031
Join date : 2011-06-17

View user profile http://codecs.forumotion.net

Back to top Go down

Re: some of the video playing only sound no picture

Post by haicsyc on Wed Jul 08, 2015 4:07 am

When I disable Mpeg43 and Mpeg4s decoders, the video can be played normally. But I later canceled this setting, the video is still able to play normally, I do not know why? (32-bit Windows)

haicsyc

Posts : 3
Join date : 2015-07-05

View user profile

Back to top Go down

Re: some of the video playing only sound no picture

Post by Admin on Wed Jul 08, 2015 4:22 pm

I am not sure why it continues to work after re-enabling them. But the good news is that the problem is solved.

Admin
Admin

Posts : 4031
Join date : 2011-06-17

View user profile http://codecs.forumotion.net

Back to top Go down

Re: some of the video playing only sound no picture

Post by Sponsored content


Sponsored content


Back to top Go down

Back to top


 
Permissions in this forum:
You cannot reply to topics in this forum