about CFHD Video Decode, Please support this decode

Go down

about CFHD Video Decode, Please support this decode

Post by 3304xfq on Fri Feb 27, 2015 9:51 am

MEDIA INFO

General
Complete name : D:\VIDEO\TimeScapes 4k CineForm\TimeScapes 4k CineForm.avi
Format : AVI
Format/Info : Audio Video Interleave
Format profile : OpenDML
File size : 307 GiB
Duration : 48mn 22s
Overall bit rate : 909 Mbps

Video
ID : 0
Format : CineForm
Codec ID : CFHD
Codec ID/Info : CineForm 10-bit Visually Perfect HD (Wavelet)
Duration : 48mn 21s
Bit rate : 908 Mbps
Width : 4 096 pixels
Height : 2 304 pixels
Display aspect ratio : 16:9
Frame rate : 23.976 fps
Scan type : Progressive
Bits/(Pixel*Frame) : 4.013
Stream size : 307 GiB (100%)

Audio
ID : 1
Format : PCM
Format settings, Endianness : Little
Format settings, Sign : Signed
Codec ID : 1
Duration : 48mn 22s
Bit rate mode : Constant
Bit rate : 1 536 Kbps
Channel(s) : 2 channels
Sampling rate : 48.0 KHz
Bit depth : 16 bits
Stream size : 531 MiB (0%)
Alignment : Aligned on interleaves
Interleave, duration : 250 ms (5.99 video frames)
Interleave, preload duration : 250 ms



File Download :
http://pan.baidu.com/wap/link?uk=2353497462&shareid=1018603165&third=3

magnet:?xt=urn:btih:A0A4AB2DEBE4799B4BD79CDE7D9E078E496913CB&dn=

Xunlei down: (web open,copy Internal url to xunlei )

TimeScapes.part1.rar
http://kuai.xunlei.com/d/I2BEBgIILABJiMZSb05
TimeScapes.part2.rar
http://kuai.xunlei.com/d/I2BEBgIGLAAtiMZS15d
TimeScapes.part3.rar
http://kuai.xunlei.com/d/I2BEBgICLAADiMZS60b
TimeScapes.part4.rar
http://kuai.xunlei.com/d/I2BEBgL8KwDMh8ZSe95
TimeScapes.part5.rar
http://kuai.xunlei.com/d/I2BEBgofjACah8ZS0db
TimeScapes.part6.rar
http://kuai.xunlei.com/d/I2BEBgohjACah8ZSce6

Xunlei Software: http://down.sandai.net/thunder7/Thunder_kk_7.9.33.4890.exe


setup
[FileDir]\TimeScapes 4k CineForm\Players and Codecs\cineform codec\Windows\GoProCineFormStudioPC-1.2.0.127.exe

Filter File
C:\Program Files (x86)\GoPro\Tools\CFDecode2.ax decode video only one file!!


我是中国人,不懂英文,但我能阅读英文
I am a Chinese, do not understand English, but I can read English

3304xfq

Posts : 2
Join date : 2015-02-27

View user profile

Back to top Go down

Re: about CFHD Video Decode, Please support this decode

Post by Admin on Fri Feb 27, 2015 3:21 pm

That format is not supported. Only free open-source codecs are added to the codec pack, and no such codec exists yet for Cineform.

Admin
Admin

Posts : 4034
Join date : 2011-06-17

View user profile http://codecs.forumotion.net

Back to top Go down

Re: about CFHD Video Decode, Please support this decode

Post by 3304xfq on Sat Feb 28, 2015 10:50 am

Mad Mad Mad Mad

3304xfq

Posts : 2
Join date : 2015-02-27

View user profile

Back to top Go down

Re: about CFHD Video Decode, Please support this decode

Post by Sponsored content


Sponsored content


Back to top Go down

Back to top


 
Permissions in this forum:
You cannot reply to topics in this forum