How to play HEVC video in K-Lite 10.7.7

View previous topic View next topic Go down

How to play HEVC video in K-Lite 10.7.7

Post by td7 on Wed Oct 01, 2014 6:35 pm

Hi, I'm trying to play a hevc file with K-lite 10.7.7. But it's not playing, only audio is playing.
Please help.
Here is the file info:
************************************************
General
Unique ID : 206427633081845930546111860637577715614 (0x9B4C8417EDE0F4F5848C7D0E18B31F9E)
Format : Matroska
Format version : Version 4 / Version 2
File size : 21.6 MiB
Duration : 58s 178ms
Overall bit rate : 3 115 Kbps
Encoded date : UTC 2014-09-29 05:32:47
Writing application : mkvmerge v7.0.0 ('Where We Going') 64bit built on Jun 9 2014 15:16:27
Writing library : libebml v1.3.0 + libmatroska v1.4.1
_STATISTICS_WRITING_APP : mkvmerge v7.0.0 ('Where We Going') 64bit built on Jun 9 2014 15:16:27
_STATISTICS_WRITING_DATE_UTC : 2014-09-29 05:32:47
_STATISTICS_TAGS : BPS DURATION NUMBER_OF_FRAMES NUMBER_OF_BYTES
DURATION : 00:00:57.166000000
NUMBER_OF_FRAMES : 31
NUMBER_OF_BYTES : 127562

Video
ID : 1
Format : HEVC
Format/Info : High Efficiency Video Coding
Codec ID : V_MPEGH/ISO/HEVC
Duration : 58s 167ms
Bit rate : 2 285 Kbps
Width : 1 920 pixels
Height : 816 pixels
Display aspect ratio : 2.35:1
Frame rate mode : Constant
Frame rate : 24.000 fps
Bits/(Pixel*Frame) : 0.061
Stream size : 15.8 MiB (73%)
Default : Yes
Forced : No

Audio
ID : 2
Format : DTS
Format/Info : Digital Theater Systems
Mode : 16
Format settings, Endianness : Big
Codec ID : A_DTS
Duration : 58s 178ms
Bit rate mode : Constant
Bit rate : 768 Kbps
Channel(s) : 6 channels
Channel positions : Front: L C R, Side: L R, LFE
Sampling rate : 48.0 KHz
Bit depth : 24 bits
Compression mode : Lossy
Delay relative to video : 1ms
Stream size : 5.33 MiB (25%)
Default : Yes
Forced : No

Text #1
ID : 3
Format : PGS
Muxing mode : zlib
Codec ID : S_HDMV/PGS
Codec ID/Info : The same subtitle format used on BDs/HD-DVDs
Language : English
Default : Yes
Forced : No

Text #2
ID : 4
Format : PGS
Muxing mode : zlib
Codec ID : S_HDMV/PGS
Codec ID/Info : The same subtitle format used on BDs/HD-DVDs
Language : Arabic
Default : No
Forced : No

td7

Posts : 5
Join date : 2014-10-01

View user profile

Back to top Go down

Re: How to play HEVC video in K-Lite 10.7.7

Post by Admin on Wed Oct 01, 2014 10:27 pm

You need to use LAV Splitter. Haali splitter does not support HEVC.

Admin
Admin

Posts : 2987
Join date : 2011-06-17

View user profile http://codecs.forumotion.net

Back to top Go down

View previous topic View next topic Back to top


 
Permissions in this forum:
You cannot reply to topics in this forum