Help with video playing only intro

View previous topic View next topic Go down

Help with video playing only intro

Post by Headrush on Wed Mar 05, 2014 5:42 pm

Hi,

I captured this video from a streaming site through replay media catcher. The video plays for around 10 secs then stops (tried in VLC, MP Classic, KM player, Zoom Player) although the download had fully finished. Is it something with the lavf encoded file??

Many Thanks.

-----------------------------------------------------------------------------------------

Here is the mediainfo of the file:

General
Complete name : G:\WD Smartware Pro Free Trial\New folder\360_1000K_12761141-mp4.mp4
Format : MPEG-4
Format profile : Base Media
Codec ID : isom
File size : 107 MiB
Duration : 27mn 55s
Overall bit rate : 534 Kbps
Encoded date : UTC 2013-12-08 22:25:27
Tagged date : UTC 2013-12-08 22:25:27
Writing application : Lavf53.24.2

Video
ID : 1
Format : AVC
Format/Info : Advanced Video Codec
Format profile : Main@L3.0
Format settings, CABAC : Yes
Format settings, ReFrames : 2 frames
Codec ID : avc1
Codec ID/Info : Advanced Video Coding
Duration : 27mn 55s
Bit rate mode : Constant
Bit rate : 500 Kbps
Width : 640 pixels
Height : 360 pixels
Display aspect ratio : 16:9
Frame rate mode : Constant
Frame rate : 29.970 fps
Color space : YUV
Chroma subsampling : 4:2:0
Bit depth : 8 bits
Scan type : Progressive
Bits/(Pixel*Frame) : 0.072
Stream size : 99.9 MiB (94%)
Encoded date : UTC 2013-12-08 22:25:27

Audio
ID : 2
Format : AAC
Format/Info : Advanced Audio Codec
Format profile : LC
Codec ID : 40
Duration : 27mn 55s
Bit rate mode : Constant
Bit rate : 30.3 Kbps
Channel(s) : 1 channel
Channel positions : Front: C
Sampling rate : 32.0 KHz
Compression mode : Lossy
Stream size : 6.05 MiB (6%)
Encoded date : UTC 2013-12-08 22:25:27

Headrush

Posts : 2
Join date : 2014-03-05

View user profile

Back to top Go down

Re: Help with video playing only intro

Post by Admin on Thu Mar 06, 2014 1:30 am

The file is probably damaged somehow. Try redownloading it. I recommend using DownloadHelperPlugin for Firefox.


Admin
Admin

Posts : 2986
Join date : 2011-06-17

View user profile http://codecs.forumotion.net

Back to top Go down

Re: Help with video playing only intro

Post by Headrush on Thu Mar 06, 2014 9:39 am

Admin wrote:The file is probably damaged somehow. Try redownloading it. I recommend using DownloadHelperPlugin for Firefox.


Ok thanks! Very Happy 

Headrush

Posts : 2
Join date : 2014-03-05

View user profile

Back to top Go down

Re: Help with video playing only intro

Post by Sponsored content Today at 10:55 pm


Sponsored content


Back to top Go down

View previous topic View next topic Back to top


 
Permissions in this forum:
You cannot reply to topics in this forum