Video not playing in madVR for 10bit AC3 video format mkv

View previous topic View next topic Go down

Video not playing in madVR for 10bit AC3 video format mkv

Post by Kirito on Tue Jan 07, 2014 2:26 am

Please help,
i can't play the video using madVR in 10bit AC-3 mkv Sad

Symptoms are black screen. MPC says "playing" but the progress indicator doesn't move.
but when i change EVR-CP , work fine ~_~

i tried video 8bit AC-3 mp4, working fine
i also tried play video 10bit AAC mkv, it's working fine

> me using codec 10.2.2
> madvr
> lav filter (audio,video, spliiter)

is madvr bugged when play 10bit ac-3 format mkv or is there another problem ??

Here's i provide the info of video, maybe it can help
Code:
Complete name                            : Menkui!- 01 [DVDRip 852x480 x264 10bit AC3] [B54E90B8].mkv
Format                                   : Matroska
Format version                           : Version 4 / Version 2
File size                                : 352 MiB
Duration                                 : 28mn 18s
Overall bit rate                         : 1 736 Kbps
Encoded date                             : UTC 2014-01-04 20:37:21
Writing application                      : mkvmerge v6.0.0 ('Coming Up For Air') built on Jan 20 2013 09:52:00
Writing library                          : libebml v1.3.0 + libmatroska v1.4.0
Attachment                               : Yes / Yes / Yes / Yes / Yes / Yes / Yes / Yes / Yes / Yes / Yes

Video
ID                                       : 1
Format                                   : AVC
Format/Info                              : Advanced Video Codec
Format profile                           : High 10@L4.0
Format settings, CABAC                   : Yes
Format settings, ReFrames                : 16 frames
Codec ID                                 : V_MPEG4/ISO/AVC
Duration                                 : 28mn 18s
Bit rate                                 : 1 510 Kbps
Width                                    : 852 pixels
Height                                   : 480 pixels
Display aspect ratio                     : 16:9
Frame rate mode                          : Constant
Frame rate                               : 23.976 fps
Color space                              : YUV
Chroma subsampling                       : 4:2:0
Bit depth                                : 10 bits
Scan type                                : Progressive
Bits/(Pixel*Frame)                       : 0.154
Stream size                              : 306 MiB (87%)
Writing library                          : x264 core 133 r2334 a3ac64b
Encoding settings                        : cabac=1 / ref=16 / deblock=1:1:1 / analyse=0x3:0x133 / me=umh / subme=10 / psy=1 / psy_rd=0.40:0.00 / mixed_ref=1 / me_range=24 / chroma_me=1 / trellis=2 / 8x8dct=1 / cqm=0 / deadzone=21,11 / fast_pskip=1 / chroma_qp_offset=-2 / threads=6 / lookahead_threads=1 / sliced_threads=0 / nr=0 / decimate=1 / interlaced=0 / bluray_compat=0 / constrained_intra=0 / bframes=10 / b_pyramid=2 / b_adapt=2 / b_bias=0 / direct=3 / weightb=1 / open_gop=0 / weightp=2 / keyint=240 / keyint_min=23 / scenecut=40 / intra_refresh=0 / rc_lookahead=60 / rc=crf / mbtree=1 / crf=16.0 / qcomp=0.60 / qpmin=0 / qpmax=81 / qpstep=4 / ip_ratio=1.40 / aq=1:0.60
Language                                 : English
Default                                  : Yes
Forced                                   : No

Audio
ID                                       : 2
Format                                   : AC-3
Format/Info                              : Audio Coding 3
Mode extension                           : CM (complete main)
Format settings, Endianness              : Big
Codec ID                                 : A_AC3
Duration                                 : 28mn 18s
Bit rate mode                            : Constant
Bit rate                                 : 192 Kbps
Channel count                            : 2 channels
Channel positions                        : Front: L R
Sampling rate                            : 48.0 KHz
Bit depth                                : 16 bits
Compression mode                         : Lossy
Stream size                              : 38.9 MiB (11%)
Default                                  : Yes
Forced                                   : No

Text
ID                                       : 3
Format                                   : ASS
Codec ID                                 : S_TEXT/ASS
Codec ID/Info                            : Advanced Sub Station Alpha
Compression mode                         : Lossless
Default                                  : Yes
Forced                                   : No

Kirito

Posts : 14
Join date : 2013-07-14

View user profile

Back to top Go down

Re: Video not playing in madVR for 10bit AC3 video format mkv

Post by Admin on Tue Jan 07, 2014 6:26 am

This bug has been fixed today. So problem should be solved with next update.

Admin
Admin

Posts : 2979
Join date : 2011-06-17

View user profile http://codecs.forumotion.net

Back to top Go down

Re: Video not playing in madVR for 10bit AC3 video format mkv

Post by Kirito on Tue Jan 07, 2014 10:30 am

Admin wrote:This bug has been fixed today. So problem should be solved with next update.

so the problem from the madvr or the lav filter ??

now i must wait the new release k lite codec pack admin ??

btw where i can see the changelog of madvr ?

Kirito

Posts : 14
Join date : 2013-07-14

View user profile

Back to top Go down

Re: Video not playing in madVR for 10bit AC3 video format mkv

Post by Admin on Wed Jan 08, 2014 4:03 am

It was a regression in LAV Video decoder. It only occurred when using madVR and xy-VSFilter.
10.2.3 fixes the problem.

Here is changelog:
http://www.videohelp.com/tools/madVR/version-history

Admin
Admin

Posts : 2979
Join date : 2011-06-17

View user profile http://codecs.forumotion.net

Back to top Go down

Re: Video not playing in madVR for 10bit AC3 video format mkv

Post by Kirito on Thu Jan 09, 2014 10:59 am

Admin wrote:It was a regression in LAV Video decoder. It only occurred when using madVR and xy-VSFilter.
10.2.3 fixes the problem.

Here is changelog:
http://www.videohelp.com/tools/madVR/version-history

thx admin

btw where can i see changelog for lav filter ?

Kirito

Posts : 14
Join date : 2013-07-14

View user profile

Back to top Go down

Re: Video not playing in madVR for 10bit AC3 video format mkv

Post by Sponsored content Today at 1:33 am


Sponsored content


Back to top Go down

View previous topic View next topic Back to top


 
Permissions in this forum:
You cannot reply to topics in this forum