Encoding an old MPEG format

View previous topic View next topic Go down

Encoding an old MPEG format

Post by Nemolo on Mon Mar 18, 2013 11:24 pm

Hi community,
i have some problem encoding a file in an old mpeg video format.
In particular i have to split a file in more files (i'm quite forced to use virtualdub)
this is the output of MediaInfo on my original file, i can't find the right encoder to generate the "cut" file with the same codec of the original.
Code:

General
Complete name                            : C:\Users\*\Desktop\VirtualDub\150.mpg
Format                                  : MPEG-PS
File size                                : 169 MiB
Duration                                : 17mn 12s
Overall bit rate                        : 1 375 Kbps

Video
ID                                      : 224 (0xE0)
Format                                  : MPEG Video
Format version                          : Version 1
Format settings, BVOP                    : Yes
Format settings, Matrix                  : Default
Format settings, GOP                    : M=3, N=9
Duration                                : 17mn 12s
Bit rate                                : 1 152 Kbps
Width                                    : 352 pixels
Height                                  : 288 pixels
Display aspect ratio                    : 4:3
Frame rate                              : 25.000 fps
Standard                                : PAL
Color space                              : YUV
Bit depth                                : 8 bits
Scan type                                : Progressive
Compression mode                        : Lossy
Bits/(Pixel*Frame)                      : 0.455
Time code of first frame                : 00:01:31:11
Time code source                        : Group of pictures header
Stream size                              : 142 MiB (84%)

Audio
ID                                      : 192 (0xC0)
Format                                  : MPEG Audio
Format version                          : Version 1
Format profile                          : Layer 2
Duration                                : 17mn 12s
Bit rate mode                            : Constant
Bit rate                                : 192 Kbps
Channel(s)                              : 2 channels
Sampling rate                            : 44.1 KHz
Compression mode                        : Lossy
Delay relative to video                  : -211ms
Stream size                              : 23.6 MiB (14%)


i hope someone can help me,
thank you

Nemolo

Posts : 1
Join date : 2013-03-18

View user profile

Back to top Go down

Re: Encoding an old MPEG format

Post by Admin on Tue Mar 19, 2013 12:52 am

VirtualDub is mainly for AVI files. I don't think it will handle MPEG properly.

Google for "cut mpeg file" and you should be able to find many tools to try. Here are some examples:
http://mpgcut.sourceforge.net/
http://www.videohelp.com/tools/Movica
http://www.womble.com/support/FAQ02.html

Admin
Admin

Posts : 2987
Join date : 2011-06-17

View user profile http://codecs.forumotion.net

Back to top Go down

View previous topic View next topic Back to top


 
Permissions in this forum:
You cannot reply to topics in this forum